<?xml version="1.0" standalone="no"?>
<!DOCTYPE svg PUBLIC "-//W3C//DTD SVG 1.1//EN" "http://www.w3.org/Graphics/SVG/1.1/DTD/svg11.dtd" >
<svg xmlns="http://www.w3.org/2000/svg">
  <metadata>Created by iconfont</metadata>
  <defs>
  <font id="iconfont" horiz-adv-x="1024">
    <font-face
      font-family="iconfont"
      font-weight="400"
      font-stretch="normal"
      units-per-em="1024"
      ascent="896"
      descent="-128"
    />
      <missing-glyph />

      <glyph glyph-name="baobiaokanban" unicode="&#58987;" d="M128 42.666667h768a42.666667 42.666667 0 0 0 0-85.333334H128a42.666667 42.666667 0 0 0 0 85.333334zM960 810.666667h-896A64 64 0 0 1 0 746.666667v-554.666667A64 64 0 0 1 64 128h896a64 64 0 0 1 64 64v554.666667A64 64 0 0 1 960 810.666667zM938.666667 725.333333v-512H85.333333V725.333333h853.333334zM778.88 668.458667a42.666667 42.666667 0 0 0 66.901333-52.736l-3.328-4.181334-229.418666-256a42.666667 42.666667 0 0 0-55.466667-7.04l-4.266667 3.242667-163.712 141.653333-142.933333-178.730666a42.666667 42.666667 0 0 0-55.594667-9.728l-4.394666 3.072a42.666667 42.666667 0 0 0-9.728 55.594666l3.072 4.394667 170.666666 213.333333a42.666667 42.666667 0 0 0 57.173334 8.704l4.053333-3.114666 165.546667-143.189334 201.429333 224.725334z"  horiz-adv-x="1024" />

      <glyph glyph-name="kanban" unicode="&#58936;" d="M899.657143 802.816H124.342857a124.342857 124.342857 0 0 1-124.342857-124.342857v-482.742857a124.342857 124.342857 0 0 1 124.342857-124.342857h775.314286a124.342857 124.342857 0 0 1 124.342857 124.342857v482.742857a124.342857 124.342857 0 0 1-124.342857 124.342857z m-775.314286-73.142857h775.314286a51.2 51.2 0 0 0 51.2-51.2v-482.742857a51.2 51.2 0 0 0-51.2-51.2H124.342857a51.2 51.2 0 0 0-51.2 51.2v482.742857a51.2 51.2 0 0 0 51.2 51.2zM741.522286 614.034286a36.571429 36.571429 0 0 0 57.051428-45.348572l-4.096-5.12-221.110857-231.643428a36.571429 36.571429 0 0 0-47.762286-4.461715l-5.12 4.461715-89.965714 94.208-148.041143-155.136a36.571429 36.571429 0 0 0-46.592-5.339429l-5.12 4.096a36.571429 36.571429 0 0 0-5.339428 46.592l4.096 5.12 174.592 182.857143a36.571429 36.571429 0 0 0 47.762285 4.461714l5.12-4.388571 89.892572-94.208 194.633143 203.849143zM339.821714-80.749714a36.571429 36.571429 0 0 1 46.665143-4.169143l5.12 4.169143L512 39.716571l120.393143-120.466285a36.571429 36.571429 0 0 1 46.665143-4.169143l5.12 4.169143a36.571429 36.571429 0 0 1 4.169143 46.665143l-4.169143 5.12-146.285715 146.285714a36.571429 36.571429 0 0 1-46.665142 4.169143l-5.12-4.169143-146.285715-146.285714a36.571429 36.571429 0 0 1 0-51.785143z"  horiz-adv-x="1024" />

      <glyph glyph-name="yunyingkanban" unicode="&#58888;" d="M429.187879 575.586263a78.730343 78.730343 0 0 0-21.023031-20.867879l147.639596-146.243232a79.833212 79.833212 0 0 0 21.087677 20.84202L429.187879 575.586263z m381.42707 9.179798L663.492525 430.454949a79.39103 79.39103 0 0 0 21.669495-20.28606l147.2 154.414545a80.087919 80.087919 0 0 0-21.747071 20.182627z m-515.943434-2.469495l-88.358788-71.925657a78.17697 78.17697 0 0 0 18.178586-23.40202l89.134546 72.572121a78.743273 78.743273 0 0 0-18.954344 22.755556z m69.145859 85.979798c-27.073939 0.116364-49.118384-21.721212-49.247677-48.795152a48.907636 48.907636 0 0 1 23.686465-41.839192 48.908929 48.908929 0 0 1 48.058181-1.357576 48.619313 48.619313 0 0 1 20.997172 20.893738 47.405253 47.405253 0 0 1 5.701818 22.290101 48.963232 48.963232 0 0 1-14.480808 34.572929 48.943838 48.943838 0 0 1-34.689293 14.209293l-0.025858 0.025859z m278.67798-259.878788a48.527515 48.527515 0 0 1-37.145859 1.758384 48.568889 48.568889 0 0 1-27.513535-25.018182c-11.442424-24.268283-1.021414-53.21697 23.246868-64.646465 24.268283-11.442424 53.21697-1.021414 64.646465 23.246869 3.077172 6.516364 4.654545 13.627475 4.628687 20.84202a49.251556 49.251556 0 0 1-27.927273 43.817374h0.064647z m231.84808 271.049697c-27.06101 0.103434-49.092525-21.747071-49.195959-48.808081-0.219798-27.177374 21.630707-49.389899 48.808081-49.622626 27.177374-0.219798 49.389899 21.630707 49.622626 48.80808 0.219798 27.177374-21.630707 49.389899-48.808081 49.622627h-0.426667zM183.027071 491.390707a48.633535 48.633535 0 0 1-36.292526 8.378182A48.695596 48.695596 0 0 1 115.148283 480.025859c-15.605657-21.889293-10.524444-52.273131 11.364848-67.878788a48.66198 48.66198 0 0 1 50.65697-3.594344 48.654222 48.654222 0 0 1 26.272323 43.455354c-0.064646 5.313939-1.008485 10.563232-2.805656 15.553939a48.682667 48.682667 0 0 1-17.609697 23.828687z m0 0M878.972121 854.509899H144.019394c-64.025859 0-116.169697-52.156768-116.169697-116.169697v-521.580606c0-64.012929 52.156768-116.169697 116.169697-116.169697h734.939798c64.012929 0 116.169697 52.156768 116.169697 116.169697v521.567677c2.37899 64.025859-49.777778 116.182626-116.156768 116.182626z m67.710707-647.486061c0-29.517576-24.591515-51.652525-51.652525-51.652525H132.680404c-29.504646 0-51.652525 24.591515-51.652525 51.652525V748.06303c0 29.504646 24.591515 51.639596 51.652525 51.639596H895.043232c29.517576 0 51.652525-24.591515 51.652526-51.639596l-0.01293-541.039192z m-98.534141-228.395959H663.22101v18.967273c0 16.588283-11.843232 28.444444-28.444444 28.444444H369.234747c-16.601212 0-28.444444-11.856162-28.444444-28.444444v-18.967273H158.241616c-18.967273 0-33.189495-14.235152-33.189495-33.202424s14.222222-33.189495 33.189495-33.189495h689.907071c18.967273 0 33.189495 14.222222 33.189495 33.189495 0 18.967273-14.222222 33.202424-33.189495 33.202424z m0 0"  horiz-adv-x="1024" />

      <glyph glyph-name="shujukanban1" unicode="&#60262;" d="M979.2 737.152a32 32 0 0 1-38.4 23.936l-166.848-38.656a32 32 0 0 1-15.808-53.408L794.56 631.36l-194.56-173.568-101.024 95.68a32 32 0 0 1-45.152-1.152l-216.736-227.264A64 64 0 1 1 288 262.4c0 6.944-1.376 13.472-3.424 19.712l193.536 202.944 99.232-93.952a32 32 0 0 1 43.296-0.64L839.04 585.28l41.504-42.976a32 32 0 0 1 53.92 13.92l44.448 165.408a31.84 31.84 0 0 1 0.288 15.52zM928 445.536a32 32 0 0 1-32-32V160a32 32 0 0 0-32-32H160a32 32 0 0 0-32 32V736a32 32 0 0 0 32 32h530.656a32 32 0 0 1 0 64H160a96 96 0 0 1-96-96v-576a96 96 0 0 1 96-96h704a96 96 0 0 1 96 96v253.536a32 32 0 0 1-32 32zM912 0h-800a32 32 0 0 1 0-64h800a32 32 0 0 1 0 64z"  horiz-adv-x="1024" />

      <glyph glyph-name="jingqingqidai01" unicode="&#58887;" d="M527.226285 848.692554c-247.27171 0-447.724091-200.453405-447.724091-447.724091 0-247.27171 200.453405-447.724091 447.724091-447.724091 247.270686 0 447.723068 200.453405 447.723068 447.724091C974.950376 648.23915 774.496971 848.692554 527.226285 848.692554zM527.226285-25.361365c-235.455593 0-426.329828 190.874235-426.329828 426.329828s190.874235 426.329828 426.329828 426.329828c235.455593 0 426.329828-190.874235 426.329828-426.329828S762.681878-25.361365 527.226285-25.361365zM519.333524 633.858628m-37.521568 0a36.667 36.667 0 1 0 75.043137 0 36.667 36.667 0 1 0-75.043137 0ZM698.396759 591.603245c-12.43624 11.958356-32.211633 11.5695-44.168965-0.86674-11.958356-12.435217-11.570523-32.212656 0.86674-44.169989l63.800072-61.346183c12.43624-11.958356 32.212656-11.5695 44.169989 0.865717 11.958356 12.43624 11.570523 32.212656-0.86674 44.169989L698.396759 591.603245zM385.729643 590.991308c-12.093433 12.577456-32.027437 13.032828-44.525076 1.016143l-64.11218-61.646012c-12.497639-12.015661-12.824073-31.953759-0.730641-44.532239 12.093433-12.576433 32.028461-13.031804 44.526099-1.016143l64.111157 61.646012C397.496641 558.476777 397.823076 578.414875 385.729643 590.991308zM659.275763 258.039193c30.05041 33.363875 48.346101 77.523631 48.346101 125.960807 0 103.989399-84.299965 188.288341-188.288341 188.288341-103.989399 0-188.288341-84.298941-188.288341-188.288341 0-49.172933 18.857487-93.936439 49.725518-127.47223l-37.676088-36.226063c-12.497639-12.015661-12.824073-31.954783-0.730641-44.532239s32.028461-13.031804 44.526099-1.016143l44.461631 42.750663c26.260084-13.905708 56.196906-21.792329 87.98182-21.792329 32.816406 0 63.668065 8.402367 90.531899 23.162536l45.889143-44.122917c12.43624-11.958356 32.212656-11.5695 44.169989 0.86674s11.570523 32.212656-0.86674 44.169989L659.275763 258.039193zM511.148098 348.184283c-0.425695 0-0.843204 0.033769-1.261737 0.064468-0.418532-0.029676-0.836041-0.064468-1.261737-0.064468-9.721409 0-17.602913 7.880481-17.602913 17.602913L491.021711 494.822015c0 9.721409 7.881504 17.602913 17.602913 17.602913 9.721409 0 17.602913-7.881504 17.602913-17.602913l0-111.431905 101.674681 0c9.722432 0 17.602913-7.881504 17.602913-17.602913 0-9.722432-7.880481-17.602913-17.602913-17.602913L511.148098 348.184283z"  horiz-adv-x="1024" />

      <glyph glyph-name="touzi" unicode="&#59002;" d="M653.018-76.306l-586.01 0c-7.479 0-13.541 4.369-13.541 9.745l0 25.999c0 5.389 6.063 9.755 13.541 9.755l553.829 0 32.18-45.498zM197.547 12.627c0-5.839-6.795-10.575-15.169-10.575l-113.734 0c-8.395 0-15.174 4.736-15.174 10.575l0 183.173c0 5.839 6.782 10.575 15.174 10.575l113.735 0c8.374 0 15.169-4.736 15.169-10.575l0-183.173zM381.393 17.463c0-8.975-6.785-16.257-15.152-16.257l-113.76 0c-8.372 0-15.156 7.281-15.156 16.257l0 281.767c0 8.978 6.785 16.246 15.156 16.246l113.76 0c8.369 0 15.152-7.268 15.152-16.246l0-281.767zM576.018 15.934c0-11.722-6.795-14.726-15.152-14.726l-113.758 0c-8.374 0-15.156 3.004-15.156 14.726l0 380.868c0 11.723 6.782 14.726 15.156 14.726l113.758 0c8.359 0 15.152-3.004 15.152-14.726l0-380.868zM625.191 137.694l0 487.586c0 18.654 6.797 18.563 15.177 18.563l113.741 0c8.378 0 15.164 0.09 15.164-18.563 0 0 1.203-366.912 0-381.393-122.69-1.61-144.081-106.192-144.081-106.192zM703.967 777.696l-95.078 117.833-108.946-117.833 83.127 0c-18.683-86.724-111.398-375.74-522.019-418.188 0 0 477.593-52.006 560.357 418.188l82.559 0zM795.211 228.605c-98.342 0-178.067-79.724-178.067-178.065 0-98.342 79.724-178.067 178.067-178.067 98.341 0 178.065 79.724 178.065 178.067 0 98.341-79.724 178.065-178.065 178.065zM855.209 55.483l0-20.655-42.149 0 0-18.617 42.149 0 0-20.652-42.149 0 0-46.547-38.391 0 0 46.547-41.882 0 0 20.652 41.882 0 0 18.617-41.882 0 0 20.655 32.217 0-43.76 82.615 43.76 0 18.791-46.546c4.831-11.637 7.786-21.523 11.276-31.707l0.538 0c3.49 9.598 6.98 20.655 11.543 32l19.061 46.254 42.955 0-45.907-82.618 31.949 0z"  horiz-adv-x="1024" />

      <glyph glyph-name="riqi" unicode="&#58889;" d="M233.944615 812.819692V848.896c0 25.993846 21.346462 47.104 47.812923 47.104 26.387692 0 47.812923-21.110154 47.812924-47.104v-36.076308h299.559384V848.896c0 25.993846 21.425231 47.104 47.812923 47.104 26.466462 0 47.812923-21.110154 47.812923-47.104v-36.076308h62.227693c97.122462 0 176.128-77.902769 176.128-173.607384V532.086154a46.710154 46.710154 0 0 0 0-18.589539v-401.723077c0-95.940923-79.163077-173.843692-176.20677-173.843692l-621.252923 0.787692C76.327385-53.011692 6.144 21.346462 6.144 111.537231v527.753846c0 95.625846 79.005538 173.528615 176.285538 173.528615h51.515077z m0-70.892307h-51.515077C124.770462 742.006154 77.981538 695.926154 77.981538 639.212308v-69.316923a49.309538 49.309538 0 0 0 2.993231 0h810.299077v69.316923c0 56.713846-46.788923 102.872615-104.369231 102.872615h-62.227692v-54.429538c0-25.993846-21.346462-47.261538-47.812923-47.261539a47.497846 47.497846 0 0 0-47.812923 47.104v54.587077H329.570462v-54.429538c0-25.993846-21.425231-47.261538-47.812924-47.261539a47.497846 47.497846 0 0 0-47.812923 47.104v54.587077z m657.408-266.31877H81.132308l-2.993231 0.07877v-364.150154c0-56.713846 46.867692-102.793846 104.369231-102.793846H786.904615c57.580308 0 104.369231 46.158769 104.369231 102.793846V475.608615z m-383.606153-347.923692h-45.686154a47.497846 47.497846 0 0 0-47.812923 47.182769c0 25.993846 21.346462 47.104 47.812923 47.104h45.686154c26.387692 0 47.812923-21.110154 47.812923-47.104a47.419077 47.419077 0 0 0-47.812923-47.182769z m-213.464616 148.164923h-45.686154a47.497846 47.497846 0 0 0-47.812923 47.182769c0 25.993846 21.346462 47.104 47.812923 47.104h45.686154c26.387692 0 47.812923-21.110154 47.812923-47.104 0-26.072615-21.425231-47.182769-47.812923-47.182769z m213.464616 0h-45.686154a47.497846 47.497846 0 0 0-47.812923 47.182769c0 25.993846 21.346462 47.104 47.812923 47.104h45.686154c26.387692 0 47.812923-21.110154 47.812923-47.104 0-26.072615-21.425231-47.182769-47.812923-47.182769z m212.91323 0h-45.686154a47.497846 47.497846 0 0 0-47.812923 47.182769c0 25.993846 21.425231 47.104 47.812923 47.104h45.686154c26.466462 0 47.891692-21.110154 47.891693-47.104 0-26.072615-21.425231-47.182769-47.891693-47.182769z m-426.377846-148.086154h-45.686154a47.497846 47.497846 0 0 0-47.812923 47.104c0 25.993846 21.346462 47.104 47.812923 47.104h45.686154c26.387692 0 47.812923-21.110154 47.812923-47.104a47.419077 47.419077 0 0 0-47.812923-47.182769z m426.377846 0h-45.686154a47.497846 47.497846 0 0 0-47.812923 47.104c0 25.993846 21.425231 47.104 47.812923 47.104h45.686154c26.466462 0 47.891692-21.110154 47.891693-47.104 0-26.072615-21.425231-47.182769-47.891693-47.182769z"  horiz-adv-x="1024" />

      <glyph glyph-name="yinleren_" unicode="&#58886;" d="M544 734.592A352 352 0 1 1 512 32 352 352 0 0 1 608 722.752V384a96 96 0 1 0-64 90.56V734.592zM512-32a416 416 0 1 0 0 832 416 416 0 0 0 0-832zM405.952 617.088a32 32 0 1 0 26.24-58.368c-3.328-1.472-33.92-17.024-55.872-39.04-18.752-18.688-37.44-52.416-38.976-55.808a32 32 0 0 0-58.368 26.176c2.496 5.632 7.04 14.464 13.568 25.152 10.88 17.92 23.616 34.88 38.464 49.728 14.848 14.848 31.872 27.648 49.728 38.528 10.752 6.528 19.584 11.136 25.216 13.632z m280.704-312.832a32 32 0 1 0 58.368-26.24c-2.56-5.632-7.104-14.464-13.632-25.216-10.88-17.856-23.68-34.88-38.528-49.728a264.512 264.512 0 0 0-49.664-38.464 236.8 236.8 0 0 0-25.152-13.568 32 32 0 0 0-26.176 58.432c3.328 1.472 35.776 18.944 55.808 38.912 24.96 24.96 37.44 52.544 38.976 55.872z"  horiz-adv-x="1024" />

      <glyph glyph-name="dapan" unicode="&#58984;" d="M482.133333 89.6H110.933333c-32 0-57.6 25.6-57.6 57.6V721.066667c0 32 25.6 57.6 57.6 57.6h802.133334c32 0 57.6-25.6 57.6-57.6v-573.866667c0-32-25.6-57.6-57.6-57.6H544v-44.8h260.266667v-61.866667H221.866667v61.866667h260.266666v44.8z m-364.8 64h787.2V714.666667H117.333333v-561.066667zM256 405.333333h74.666667v-149.333333H256v149.333333z m213.333333 192h74.666667v-341.333333H469.333333V597.333333z m211.2-85.333333h74.666667v-256h-74.666667V512z"  horiz-adv-x="1024" />

      <glyph glyph-name="bangdan" unicode="&#58985;" d="M688 832A112 112 0 0 0 800 720V704h128a64 64 0 0 0 63.84-59.2L992 640v-128a160 160 0 0 0-160-160h-39.136a288.32 288.32 0 0 0-233.216-220.064L559.616 32H688a48 48 0 0 0 0-96h-352a48 48 0 0 0 0 96h127.616v100.032A288.32 288.32 0 0 0 231.136 352L192 352a160 160 0 0 0-160 160V640a64 64 0 0 0 64 64h128v16a112 112 0 0 0 105.856 111.84L336 832z m0-96h-352a16 16 0 0 1-16-16V416a192 192 0 0 1 192-192l-4.32 0.096a48.64 48.64 0 0 0 3.968 0.16l4.16-0.224A192 192 0 0 1 704 416V720a16 16 0 0 1-16 16zM224 608H128v-96a64 64 0 0 1 59.2-63.84L192 448h32V608z m672 0h-96v-160h32l4.8 0.16A64 64 0 0 1 896 512V608z"  horiz-adv-x="1024" />

      <glyph glyph-name="shujuwajue" unicode="&#58983;" d="M1024-68.266667L778.666667 177.066667c59.733333 74.666667 93.866667 168.533333 93.866666 270.933333C872.533333 689.066667 676.266667 885.333333 435.2 885.333333 196.266667 883.2 0 689.066667 0 448s196.266667-437.333333 437.333333-437.333333c115.2 0 217.6 44.8 296.533334 117.333333l243.2-243.2 46.933333 46.933333zM64 448c0 204.8 166.4 373.333333 373.333333 373.333333S808.533333 652.8 808.533333 448s-166.4-373.333333-373.333333-373.333333S64 243.2 64 448zM226.133333 544h64v-322.133333h-64zM405.333333 665.6h64v-441.6h-64zM582.4 462.933333h64v-241.066666h-64z"  horiz-adv-x="1024" />

      <glyph glyph-name="shoucang1" unicode="&#58880;" d="M174.5 29.625l281.25 163.125c33.75 22.5 78.75 22.5 112.5 0l281.25-163.125V721.5c0 33.75-22.5 56.25-56.25 56.25H230.75c-33.75 0-56.25-22.5-56.25-56.25v-691.875zM230.75 834h562.5c61.875 0 112.5-50.625 112.5-112.5v-736.875c0-16.875-11.25-28.125-28.125-28.125-5.625 0-11.25 0-11.25 5.625l-326.25 185.625c-16.875 11.25-39.375 11.25-56.25 0L157.625-37.875c-11.25-5.625-28.125-5.625-39.375 11.25V721.5C118.25 783.375 168.875 834 230.75 834zM499.2 396.8c6.4 6.4 19.2 6.4 32 0l76.8-38.4-19.2 83.2c0 12.8 0 19.2 6.4 25.6l57.6 57.6L576 537.6c-12.8 0-19.2 6.4-25.6 19.2L512 633.6l-38.4-76.8c-6.4-12.8-12.8-19.2-25.6-19.2l-83.2-12.8 57.6-57.6c12.8-6.4 19.2-19.2 12.8-25.6l-12.8-83.2 76.8 38.4z m-102.4-128c-25.6-12.8-51.2 6.4-51.2 38.4l19.2 128-89.6 89.6c-19.2 19.2-6.4 51.2 19.2 57.6l128 19.2 57.6 115.2c12.8 25.6 44.8 25.6 57.6 0l57.6-115.2 128-19.2c32-6.4 44.8-38.4 25.6-57.6L652.8 435.2l19.2-128c6.4-32-19.2-51.2-44.8-38.4L512 332.79999999999995l-115.2-64z"  horiz-adv-x="1024" />

      <glyph glyph-name="tianjiazhibiao" unicode="&#58930;" d="M819.2 128v102.4h51.2v-102.4h102.4v-51.2h-102.4v-102.4h-51.2v102.4h-102.4v51.2h102.4zM153.6 25.600000000000023h512v-51.2H102.4V793.6h51.2v-768z m486.4 194.2016l-204.8 204.8-186.6752-186.7264-36.2496 36.2496L435.2 496.9984l204.8-204.8 289.0752 289.1264 36.2496-36.2496-325.3248-325.2736z"  horiz-adv-x="1024" />

      <glyph glyph-name="tianjiafenzu" unicode="&#58982;" d="M512 192v-64H128v-128h512v-64H64v256h448z m288 128v-160H960v-64h-160V-64h-64v160H576v64h160V320h64zM896 512v-128h-64V448H128v-128h512v-64H64V512h832z m0 320v-256H64V832h832z m-64-64H128v-128h704V768z"  horiz-adv-x="1024" />

      <glyph glyph-name="youxiajiaogouxuan" unicode="&#59575;" d="M256-128h768V640l-768-768z m493.6 108.8L704-64l-45.6 45.6L576 64l45.6 45.6L704 26.4l210.4 210.4 45.6-45.6-210.4-210.4z"  horiz-adv-x="1024" />

      <glyph glyph-name="xiaoshouzhibiaoshezhi" unicode="&#58981;" d="M907.392 781.44a32.768 32.768 0 0 1-15.872 2.24h-123.264a32 32 0 0 1 0-64h47.616L639.744 543.552 408.896 774.464a33.472 33.472 0 0 1-25.088 9.536 33.024 33.024 0 0 1-24.704-9.472L105.408 520.768a33.152 33.152 0 0 1 46.848-46.848l231.232 231.296 231.168-231.168c6.848-6.912 16-9.92 25.088-9.536a33.024 33.024 0 0 1 25.088 9.536l199.424 199.424v-49.728a32 32 0 0 1 64 0v128a31.808 31.808 0 0 1-20.864 29.696zM128.256 239.744a32 32 0 0 1-32-32v-192a32 32 0 1 1 64 0v192a32 32 0 0 1-32 32z m256 224a32 32 0 0 1-32-32v-416a32 32 0 0 1 64 0v416a32 32 0 0 1-32 32z m519.872-187.648h-1.92c-32.128 0-58.24 27.648-58.24 61.632 0 11.264 5.056 23.488 5.056 23.616a28.8 28.8 0 0 1-8.896 33.728l-0.576 0.384-56 33.024-0.576 0.256a28.48 28.48 0 0 1-31.744-6.72c-6.848-7.488-28.416-26.88-45.888-26.88-17.472 0-39.232 19.776-46.08 27.392a28.672 28.672 0 0 1-21.056 9.216 25.472 25.472 0 0 1-10.624-2.24l-0.64-0.256-57.92-33.792-0.576-0.384a28.864 28.864 0 0 1-8.96-33.728c0-0.128 5.056-12.352 5.056-23.616 0-33.984-26.112-61.632-58.24-61.632h-1.92c-9.344 0.128-17.024-8.512-19.456-22.144-0.192-1.024-4.672-26.496-4.672-46.528s4.48-45.376 4.672-46.528c2.432-13.376 9.856-22.016 19.072-22.016h2.304c32.128 0 58.24-27.648 58.24-61.76 0-11.136-5.056-23.488-5.056-23.488a28.864 28.864 0 0 1 8.896-33.728l0.512-0.384 54.976-32.64 0.576-0.256a28.352 28.352 0 0 1 31.808 7.104c6.464 7.36 28.864 28.48 46.848 28.48s40.128-20.992 47.104-29.12a27.84 27.84 0 0 1 31.744-7.232l0.64 0.256 56.896 33.344 0.64 0.384a28.992 28.992 0 0 1 8.896 33.728s-5.056 12.352-5.056 23.488c0 34.112 26.112 61.76 58.24 61.76h1.92c9.344-0.256 17.024 8.512 19.456 22.016 0.192 1.152 4.672 26.496 4.672 46.528s-4.48 45.504-4.672 46.528c-2.432 13.76-10.112 22.336-19.456 22.208z m-42.816-101.696c-36.16-1.984-65.088-33.984-65.088-73.024 0-12.992 4.736-25.472 5.76-28.032l-43.136-25.344h-0.128c-0.64 0-1.216 0.128-1.344 0.384a121.088 121.088 0 0 1-16.064 15.104c-13.44 10.624-26.176 16-38.016 16-11.712 0-24.384-5.376-37.76-15.744-8.96-6.976-15.168-14.016-15.936-14.848a3.392 3.392 0 0 0-1.344-0.384h-0.128l-41.664 24.768c1.088 2.624 5.824 15.104 5.824 28.096 0 38.976-28.864 70.976-65.088 73.024a225.152 225.152 0 0 0-3.392 33.28c0 12.864 2.816 30.016 3.328 33.152 36.224 1.984 65.152 33.984 65.152 73.024 0 12.992-4.736 25.344-5.76 28.032l44.032 25.728h0.128c0.768 0 1.408-0.256 1.6-0.512 0.768-0.768 6.912-7.488 15.872-14.272 13.12-9.984 25.6-15.104 37.056-15.104 11.328 0 23.68 4.992 36.8 14.848 8.896 6.656 14.976 13.248 15.744 14.016a3.84 3.84 0 0 0 1.6 0.384h0.128l42.496-25.152c-1.024-2.496-5.76-14.976-5.76-28.032 0-38.976 28.864-70.976 65.088-73.024 0.576-3.136 3.392-20.224 3.392-33.152 0-12.992-2.816-30.272-3.392-33.216z m-157.056 97.728a63.808 63.808 0 0 1-63.232-64.384c0-35.648 28.288-64.384 63.232-64.384s63.232 28.736 63.232 64.384a63.808 63.808 0 0 1-63.232 64.384z"  horiz-adv-x="1024" />

      <glyph glyph-name="yingyongbiaoge" unicode="&#59054;" d="M950.857143 603.428571a219.428571 219.428571 0 0 1-219.428572 219.428572H292.571429a219.428571 219.428571 0 0 1-219.428572-219.428572h877.714286z m0-73.142857H73.142857v-365.714285a219.428571 219.428571 0 0 1 219.428572-219.428572h438.857142a219.428571 219.428571 0 0 1 219.428572 219.428572V530.285714zM292.571429 896h438.857142a292.571429 292.571429 0 0 0 292.571429-292.571429v-438.857142a292.571429 292.571429 0 0 0-292.571429-292.571429H292.571429a292.571429 292.571429 0 0 0-292.571429 292.571429V603.428571a292.571429 292.571429 0 0 0 292.571429 292.571429zM182.857143 310.857143V457.142857h146.285714v-146.285714h-146.285714z m0-219.428572V237.714286h146.285714v-146.285715h-146.285714zM438.857143 310.857143V457.142857h146.285714v-146.285714H438.857143z m0-219.428572V237.714286h146.285714v-146.285715H438.857143z m256 219.428572V457.142857h146.285714v-146.285714h-146.285714z m0-219.428572V237.714286h146.285714v-146.285715h-146.285714z"  horiz-adv-x="1024" />

      <glyph glyph-name="zhibiao" unicode="&#58986;" d="M953.6 832c32-32 44.8-70.4 51.2-115.2v-684.8c0-44.8-19.2-83.2-44.8-115.2-32-32-70.4-44.8-115.2-44.8H160C76.8-128 0-51.2 0 32v64c0 19.2 19.2 32 38.4 32s38.4-12.8 38.4-32v-64c0-44.8 38.4-76.8 76.8-76.8h684.8c44.8 0 76.8 38.4 76.8 76.8V716.8c0 44.8-38.4 76.8-76.8 76.8H160c-44.8 0-76.8-38.4-76.8-76.8v-326.4c-6.4-12.8-25.6-25.6-44.8-25.6s-32 12.8-38.4 32v320C0 806.4 70.4 876.8 153.6 876.8h684.8c44.8 0 89.6-12.8 115.2-44.8zM768 556.8c-6.4 6.4-19.2 6.4-25.6 6.4l-179.2-44.8c-12.8 0-19.2-6.4-19.2-19.2 0-6.4 0-19.2 6.4-25.6l44.8-44.8L416 256 249.6 422.4c-12.8 6.4-25.6 12.8-38.4 12.8-12.8 0-25.6-6.4-38.4-19.2l-19.2-12.8-70.4-70.4-64-70.4c-6.4-6.4-12.8-19.2-12.8-25.6s6.4-19.2 12.8-25.6c19.2-19.2 38.4-19.2 57.6 0l140.8 140.8 147.2-147.2 19.2-19.2c19.2-19.2 57.6-19.2 76.8 0l192 192 38.4-38.4c6.4-6.4 19.2-6.4 25.6-6.4 6.4 0 19.2 12.8 19.2 19.2l44.8 179.2c-6.4 6.4-6.4 19.2-12.8 25.6z"  horiz-adv-x="1024" />

      <glyph glyph-name="search" unicode="&#59337;" d="M454.981818 26.88a420.072727 420.072727 0 1 0 420.072727 420.072727 420.538182 420.538182 0 0 0-420.072727-420.072727z m0 781.847273a361.890909 361.890909 0 1 1 361.890909-361.890909A362.24 362.24 0 0 1 454.981818 808.727273zM959.650909-96.814545a28.974545 28.974545 0 0 0-20.596364 8.494545L705.745455 145.105455A29.090909 29.090909 0 0 0 746.821818 186.181818l233.425455-233.425454a29.090909 29.090909 0 0 0-20.596364-49.687273z"  horiz-adv-x="1024" />

      <glyph glyph-name="modelFactory-color" unicode="&#59037;" d="M244.680556 205.021567h540.631929c21.08898 0 41.290852 18.548625 40.323097 40.323097s-17.722001 40.323097-40.323097 40.323098H244.680556c-21.08898 0-41.290852-18.548625-40.323098-40.323098s17.722001-40.323097 40.323098-40.323097zM1029.912394-17.985324l-0.161292 165.828739-0.181454 201.615487-0.181454 173.389319c0 28.226168 0.745977 56.613629 0 84.839797v1.209693c0 13.689692-7.540419 28.226168-19.980095 34.798833l-162.905314 85.464805L591.176932 863.134841c-17.601032 9.233989-35.02061 19.173633-52.863581 27.802776-14.3147 6.875088-27.580999 6.754119-41.875536-0.403231-2.237932-1.108885-4.415379-2.318578-6.63315-3.467787l-29.879415-15.665523-245.587825-129.033912c-63.710494-33.508494-128.22745-65.827457-191.272613-100.545644-1.008077-0.564523-2.016155-1.088724-3.084717-1.633085C7.580742 633.61577 0 618.998647 0 605.308956l0.120969-68.549266 0.282262-165.869062 0.362908-199.720301 0.282262-172.824796c0-28.226168-0.685493-56.452336 0.161292-84.678505v-1.209693c0-21.08898 18.528463-41.290852 40.323097-40.323097s40.323097 17.722001 40.323098 40.323097l-0.120969 68.549266-0.282262 165.808577-0.362908 199.720301-0.302423 172.824796c0 20.504295 0.625008 41.190044 0.463715 61.795147l140.969549 74.113853 257.160554 135.082377 38.306943 20.161549 139.114686-72.964645 253.914545-133.247676 38.024681-19.959933v-45.141708l0.161292-165.808577q0.120969-100.807744 0.201616-201.615487 0-86.69466 0.161292-173.389319c0-28.226168-0.725816-56.593467 0.100808-84.839797v-1.189532c0-21.08898 18.528463-41.290852 40.323098-40.323097s40.323097 17.722001 40.323097 40.323097q-0.080646 34.919802-0.100808 69.658151zM825.635582 74.2336v353.835181a40.927944 40.927944 0 0 1-40.323097 40.323097H244.680556a40.907782 40.907782 0 0 1-40.323098-40.323097v-511.538815c0-21.08898 18.548625-41.290852 40.323098-40.323098s40.323097 17.722001 40.323097 40.323098v117.380537h459.985735v-117.380537c0-21.08898 18.548625-41.290852 40.323097-40.323098s40.323097 17.722001 40.323097 40.323098v155.001987c0.020162 0.887108 0.040323 1.875024 0 2.701647z m-223.510929 40.323098H285.003653v273.188985h459.985735v-273.188985z"  horiz-adv-x="1030" />

      <glyph glyph-name="portray-color" unicode="&#59038;" d="M1021.214089-75.545629a544.37731 544.37731 0 0 1-192.470554 267.792069 532.086853 532.086853 0 0 1-141.749936 75.701221A338.237371 338.237371 0 0 1 851.345985 559.001667C851.345985 744.817388 702.761356 896 520.063215 896S188.720491 744.817388 188.720491 559.001667a338.337293 338.337293 0 0 1 158.237134-287.256955A531.307458 531.307458 0 0 1 194.55596 192.546207 544.517202 544.517202 0 0 1 2.005468-74.626343a39.349447 39.349447 0 1 1 74.721981-24.70082c63.011074 190.432136 237.815345 318.392779 434.742438 318.392779a448.871467 448.871467 0 0 0 270.230176-89.930173 466.058122 466.058122 0 0 0 164.77206-229.261986 39.349447 39.349447 0 1 1 74.741966 24.580914zM267.419384 559.001667c0 142.409424 113.332002 258.29944 252.643831 258.29944s252.623846-115.91 252.623846-258.29944-113.332002-258.29944-252.623846-258.299439-252.643831 115.870031-252.643831 258.299439zM617.247754 2.453807l-197.40672-0.339736a23.981379 23.981379 0 0 0-20.663956 36.231867l100.761763 169.708228a23.981379 23.981379 0 0 0 41.447817-0.359721l96.664943-169.368491a23.981379 23.981379 0 0 0-20.803847-35.872147z"  horiz-adv-x="1024" />

      <glyph glyph-name="visualize-color" unicode="&#59039;" d="M881.110189 896H150.323385A150.323385 150.323385 0 0 1 0 745.676615v-544.322953a150.323385 150.323385 0 0 1 150.323385-150.323385h730.786804A150.323385 150.323385 0 0 1 1031.433574 201.353662V745.676615A150.323385 150.323385 0 0 1 881.110189 896zM950.852826 201.353662a69.823218 69.823218 0 0 0-69.742637-69.742637H150.323385A69.823218 69.823218 0 0 0 80.580748 201.353662V745.676615A69.823218 69.823218 0 0 0 150.323385 815.419252h730.786804A69.823218 69.823218 0 0 0 950.852826 745.676615zM989.128681-47.419252H42.304893a40.290374 40.290374 0 0 1 0-80.580748h946.823788a40.290374 40.290374 0 0 1 0 80.580748zM248.269284 297.144026a40.290374 40.290374 0 0 0-28.102535 69.158427l145.045346 141.016309a40.290374 40.290374 0 0 0 52.699809 3.001633l136.302335-105.137731 198.430092 230.642246a40.290374 40.290374 0 0 0 61.080207-52.558793L590.37485 323.735673a40.290374 40.290374 0 0 0-55.157522-5.620507l-138.880919 107.132104-119.984734-116.701068a40.109067 40.109067 0 0 0-28.082391-11.402176z"  horiz-adv-x="1031" />

      <glyph glyph-name="amount-color" unicode="&#59023;" d="M193.431781-128H100.077138a100.157168 100.157168 0 0 0-100.037123 100.037123V310.062562a100.157168 100.157168 0 0 0 100.037123 100.037123h93.354643a100.157168 100.157168 0 0 0 100.037123-100.037123v-338.125476a100.157168 100.157168 0 0 0-100.037123-99.937086zM100.077138 330.069987a20.267521 20.267521 0 0 1-20.007425-20.007425v-338.125476a20.267521 20.267521 0 0 1 20.007425-20.007425h93.354643a20.267521 20.267521 0 0 1 20.007425 20.007425v338.125476a20.267521 20.267521 0 0 1-20.007425 20.007425zM558.907407-128h-93.354643a100.157168 100.157168 0 0 0-100.037123 100.037123V549.271331a100.157168 100.157168 0 0 0 100.037123 100.037123h93.354643a100.157168 100.157168 0 0 0 100.037123-100.037123v-577.234208a100.157168 100.157168 0 0 0-100.037123-100.037123zM465.552764 569.278756a20.267521 20.267521 0 0 1-20.007425-20.007425v-577.234208a20.267521 20.267521 0 0 1 20.007425-20.007424h93.354643a20.267521 20.267521 0 0 1 20.007425 20.007424V549.271331a20.267521 20.267521 0 0 1-20.007425 20.007425zM923.922862-128h-93.354643a100.157168 100.157168 0 0 0-100.037123 100.037123V795.962877a100.157168 100.157168 0 0 0 100.037123 100.037123h93.354643a100.157168 100.157168 0 0 0 100.037123-100.037123v-823.925754a100.157168 100.157168 0 0 0-100.037123-100.037123zM830.568219 815.970301a20.267521 20.267521 0 0 1-20.007425-20.007424v-823.925754a20.267521 20.267521 0 0 1 20.007425-20.007424h93.354643a20.267521 20.267521 0 0 1 20.007425 20.007424V795.962877a20.267521 20.267521 0 0 1-20.007425 20.007424z"  horiz-adv-x="1024" />

      <glyph glyph-name="api-color" unicode="&#59024;" d="M1027.699678 884.196492a40.631696 40.631696 0 0 1-57.453218-0.203158L878.459459 791.596857c-101.802714 98.023966-264.370129 96.540909-364.324101-4.063169l-109.380525-110.132212a40.631696 40.631696 0 0 1 0.203158-57.453218l351.586065-349.229426a40.631696 40.631696 0 0 1 28.62503-11.803508h0.142211a40.631696 40.631696 0 0 1 28.685977 12.006666l109.380525 110.111896c96.236172 96.886279 100.177446 251.20546 12.189509 352.825332L1027.9841 826.743274a40.631696 40.631696 0 0 1-0.284422 57.453218zM865.721423 438.283946l-80.73518-81.263392L491.036239 648.938973l80.755496 81.263392a178.637251 178.637251 0 0 0 252.343147 0.853266l40.631696-40.46917a178.637251 178.637251 0 0 0 0.954845-252.302515zM572.543421 209.872867l62.613443 62.979129a40.631696 40.631696 0 0 1-57.656376 57.270375l-62.633759-62.979128-111.838743 111.087056 62.633759 62.979129a40.631696 40.631696 0 0 1-57.656377 57.250059l-62.633759-62.979128-62.207126 61.800809a40.631696 40.631696 0 0 1-57.473534-0.203158l-109.380525-110.111896a260.449171 260.449171 0 0 1-12.189509-352.825332L11.805702-58.722958a40.631696 40.631696 0 1 1 57.656376-57.270376l91.787001 92.396477a257.767479 257.767479 0 0 1 180.059361-72.324419h0.914213a258.011269 258.011269 0 0 1 183.370843 76.42822l109.380526 110.111896a40.631696 40.631696 0 0 1-0.203159 57.473534z m-104.626617-172.095548a177.093247 177.093247 0 0 0-125.958257-52.435203H341.30844a177.093247 177.093247 0 0 0-125.714467 51.581938l-25.943338 25.740179-14.810253 14.607095a179.043568 179.043568 0 0 0-0.853266 252.343147l80.73518 81.263392 293.929688-291.938735z"  horiz-adv-x="1039" />

      <glyph glyph-name="content-color" unicode="&#59025;" d="M983.559972 724.30514H420.283859a40.059463 40.059463 0 0 0 0 80.118927h563.276113a40.059463 40.059463 0 0 0 0-80.118927zM983.559972 522.78601H420.283859a40.059463 40.059463 0 0 0 0 80.118927h563.276113a40.059463 40.059463 0 0 0 0-80.118927zM227.65793 431.210077H60.46976a60.089195 60.089195 0 0 0-60.089195 60.089195V835.910805A60.089195 60.089195 0 0 0 60.46976 896h167.18817a60.089195 60.089195 0 0 0 60.089195-60.089195v-344.611533a60.089195 60.089195 0 0 0-60.089195-60.089195z m-147.158439 80.118927h127.128707V815.881073H80.499491zM983.559972 165.095063H420.283859a40.059463 40.059463 0 1 0 0 80.118927h563.276113a40.059463 40.059463 0 0 0 0-80.118927zM983.559972-36.424067H420.283859a40.059463 40.059463 0 0 0 0 80.118927h563.276113a40.059463 40.059463 0 0 0 0-80.118927zM227.65793-128H60.46976a60.089195 60.089195 0 0 0-60.089195 60.089195v344.511384a60.089195 60.089195 0 0 0 60.089195 60.089195h167.18817a60.089195 60.089195 0 0 0 60.089195-60.089195v-344.511384a60.089195 60.089195 0 0 0-60.089195-60.089195z m-147.158439 80.118927h127.128707v304.45192H80.499491z"  horiz-adv-x="1024" />

      <glyph glyph-name="box-color" unicode="&#59026;" d="M971.34 418H52.68a40 40 0 0 0 0 80h918.66a40 40 0 1 0 0-80zM630.5 248.52h-237a40 40 0 0 0 0 80h237a40 40 0 0 0 0-80zM874.76 714.96h-5.82v31.8A149.24 149.24 0 0 1 719.7 896h-415.4a149.24 149.24 0 0 1-149.24-149.24v-31.8h-5.82A149.24 149.24 0 0 1 0 565.7v-544.46A149.24 149.24 0 0 1 149.24-128h725.52A149.24 149.24 0 0 1 1024 21.24V565.7a149.24 149.24 0 0 1-149.24 149.26z m-639.7 31.8A69.32 69.32 0 0 0 304.3 816h415.4a69.32 69.32 0 0 0 69.24-69.24v-31.8H235.06zM944 21.24A69.32 69.32 0 0 0 874.76-48H149.24A69.32 69.32 0 0 0 80 21.24V565.7a69.34 69.34 0 0 0 69.24 69.26h725.52A69.34 69.34 0 0 0 944 565.7z"  horiz-adv-x="1024" />

      <glyph glyph-name="chat-color" unicode="&#59027;" d="M359.44054 384m-72.96 0a72.96 72.96 0 1 1 145.92 0 72.96 72.96 0 1 1-145.92 0ZM664.56054 384m-72.96 0a72.96 72.96 0 1 1 145.92 0 72.96 72.96 0 1 1-145.92 0ZM1009.30054 507.26c-28.24 115.14-97.5 215.86-191.6 287.22S603.26054 901.7 485.58054 895.26A517.68 517.68 0 0 1 163.38054 759.4c-85.26-78.56-142.82-187.28-158.48-302.14-18.36-134.52 14.98-273.36 98.16-381.62a566.16 566.16 0 0 1 43.46-50.44l-67.84-94c-18-24.9 6.3-59.14 34-59.14h370c21.68 0 43.38-0.28 65.02 1.34a526.78 526.78 0 0 1 178.98 45.88c103.86 46.98 191.58 131.9 242.56 233.72a518.2 518.2 0 0 1 40.06 354.26zM345.12054 784.72a24 24 0 0 1-3.38-1.58 9.52 9.52 0 0 0 3.38 1.58z m-96.26-55.46a31.14 31.14 0 0 1-3.22-2.66 8.9 8.9 0 0 0 3.22 2.66zM854.74054 118a14.86 14.86 0 0 1 1.56 1.8 6.88 6.88 0 0 0-1.56-1.8z m56.58 96a13.36 13.36 0 0 1 1.04 2.12 6.44 6.44 0 0 0-1.04-2.12z m33.02 135.52q-0.72-10.2-1.9-20.34c-0.16-1.5-0.46-3.06-0.58-4.58-0.46-3-0.9-6-1.42-9.02a468.24 468.24 0 0 0-20.22-78.32q-3.28-9.28-6.92-18.42c-0.12-0.3-0.28-0.78-0.46-1.32s-0.36-0.78-0.6-1.34c-1.42-3.2-2.8-6.38-4.26-9.54q-8.44-18.3-18.38-35.84t-21.26-34q-5.14-7.48-10.5-14.7c-0.12-0.16-0.38-0.56-0.7-1.08s-0.58-0.68-1-1.22c-2.14-2.68-4.28-5.38-6.46-8A475.08 475.08 0 0 0 794.00054 54.76q-7.28-6.36-14.86-12.38l-3.02-2.4c-5.56-4.42 1.58 0.92 1.82 1.42-1.2-2.4-7.12-5.32-9.32-6.9q-16.26-11.74-33.46-22-16.68-10-34.18-18.64-8.76-4.32-17.72-8.28l-4.78-2c-4-1.82 3.44 1.5 3.36 1.42-1.72-2-8.58-3.46-10.94-4.36a470.3 470.3 0 0 0-77.52-22.32c-6.6-1.3-13.2-2.46-19.86-3.48l-3.48-0.52c-3.4-0.38-6.82-0.8-10.24-1.14q-21.18-2.12-42.48-2.38H189.28054l42.96 59.54a39.42 39.42 0 0 1-5.14 46.68 35.52 35.52 0 0 1-4.88 4.48c-10.16 9.22-20 18.8-29.3 28.84q-7.66 8.22-14.9 16.8c-2.26 2.66-4.48 5.36-6.66 8-1.2 1.5-2.38 3-3.58 4.48l-0.42 0.56a495.06 495.06 0 0 0-47.72 78.2q-2.64 5.44-5.14 10.96L112.00054 214.58c-2.88 6.72-5.42 13.62-7.88 20.48a470.88 470.88 0 0 0-13.74 45.52q-2.8 11.28-5.04 22.7c-1.5 7.68-4.4 16.78-4.14 24.62 0-0.26 0.88-7.3 0.38-2.66-0.22 2.1-0.5 4.18-0.74 6.26-0.4 3.66-0.76 7.34-1.08 11q-1.12 12.7-1.54 25.44-0.74 22.5 0.62 45 0.6 10.22 1.66 20.4c0.3 2.94 0.68 5.86 1 8.8 0.24 1.64 0.48 3.26 0.74 4.9a469.3 469.3 0 0 0 19.78 79.9c2 5.8 4.1 11.56 6.3 17.26 0.84 2.14 2.2 8.2 3.9 9.72 0 0-3.24-7.4-1.42-3.36 0.88 2 1.72 4 2.6 6q8.22 18.38 18 36t20.9 34.24q5.04 7.5 10.36 14.82c1.48 2 4 7.18 6.16 8.28-0.5-0.26-5.86-7.38-1.42-1.84 1.06 1.34 2.12 2.7 3.2 4a475.32 475.32 0 0 0 55.04 57.74q7.22 6.38 14.7 12.52c2.34 2 4.7 3.76 7.06 5.64l2 1.54c0.54 0.34 1.06 0.64 1.42 0.9q16.12 12 33.2 22.42 16.56 10.18 34 19 8.72 4.4 17.62 8.46c2.76 1.26 5.56 2.48 8.34 3.72 1.08 0.46 1.74 0.76 2.1 0.94 0.72 0.22 1.38 0.42 1.8 0.6a473.08 473.08 0 0 0 78.46 23.44q9.88 2 19.8 3.64l6.42 0.96c2.4 0.18 4.88 0.64 7.24 0.9q20.42 2.22 41 2.7 21.42 0.48 42.8-0.92 10.2-0.66 20.38-1.78c2-0.2 11.6-1.04 5.54-0.6s0 0 1.46-0.24q3.34-0.48 6.66-1.02a469.68 469.68 0 0 0 78.56-19.78q9.34-3.22 18.48-6.82l4.86-2a8.4 8.4 0 0 1 2-0.54c1.88-0.9 3.74-2 5.42-2.72q18.36-8.3 36-18.16t34.16-21.06q7.48-5.06 14.76-10.42c2.36-1.74 11.6-6.68 2.34-1.64a61.36 61.36 0 0 0 8-6.4 476.76 476.76 0 0 0 57.48-55.3q6.36-7.26 12.44-14.76a54.76 54.76 0 0 0 5.44-6.8c-0.94 1.4-5.02 6.64-1.28 1.54 1.28-1.74 2.58-3.46 3.84-5.18q11.86-16.16 22.26-33.3 10.12-16.62 18.84-34 4.38-8.74 8.38-17.64c0.6-1.34 1.46-2.88 2.2-4.42a10.66 10.66 0 0 1 0.52-1.8c0.8-2 1.62-4 2.42-6a469.3 469.3 0 0 0 23.04-78.58q2-9.86 3.52-19.8c0.24-1.56 1.22-11.08 0.88-6.1 0.3-2.52 0.6-5.06 0.86-7.6a476.2 476.2 0 0 0 2.48-41.02q0.34-21.4-1.2-42.72z"  horiz-adv-x="1024" />

      <glyph glyph-name="client-color" unicode="&#59028;" d="M877.72 151.22v-6.16c0-100.24-90.64-183.06-209.32-200.72a8.84 8.84 0 0 0-10.12 8.74V-25.6c0 19.12-16 34.14-36.56 34.14h-146.3c-20.48 0-36.56-15.02-36.56-34.14v-68.26c0-19.12 16-34.14 36.56-34.14h146.3c182.12 0 329.14 122.2 329.14 273.06v6.16m0 0c42.42 14.32 73.14 51.88 73.14 96.24V384c0 42.4-28 78.56-67.54 94.2a8.86 8.86 0 0 0-5.6 8.2C950.86 712.36 754.1 896 512 896S73.14 712.36 73.14 486.4a8.86 8.86 0 0 0-5.6-8.2C28 462.56 0 426.4 0 384v-136.54c0-56.66 49-102.4 109.72-102.4s109.7 45.74 109.7 102.4V384c0 42.4-28 78.56-67.52 94.2a8.84 8.84 0 0 0-5.62 8.2c0 188.42 163.84 341.34 365.72 341.34s365.72-152.92 365.72-341.34a8.84 8.84 0 0 0-5.62-8.2c-39.48-15.64-67.52-51.8-67.52-94.2v-136.54c0-44.36 30.72-82 73.14-96.24M146.28 247.46c0-19.1-16-34.12-36.56-34.12s-36.58 15.02-36.58 34.12V384c0 19.12 16 34.14 36.58 34.14s36.56-15.02 36.56-34.14z m804.58 0c0-19.1-16.1-34.12-36.58-34.12s-36.56 15.02-36.56 34.12V384c0 19.12 16 34.14 36.56 34.14s36.58-15.02 36.58-34.14zM545.48 598l-168-192a8.84 8.84 0 0 1 6.64-14.64h150a8.82 8.82 0 0 0 7.86-12.82l-80.58-157.66a8.82 8.82 0 0 1 14.4-10l207.92 229.78a8.82 8.82 0 0 1-6.54 14.74h-162.42a8.82 8.82 0 0 0-8 12.38l53.48 120.82a8.82 8.82 0 0 1-14.76 9.4z"  horiz-adv-x="1024" />

      <glyph glyph-name="data-process" unicode="&#59029;" d="M157.341693 405.065831H107.987461c-3.611285 0-6.62069-9.22884-6.62069-20.664577 0-11.435737 3.009404-20.664577 6.62069-20.664577h49.354232c3.611285 0 6.62069 9.22884 6.620689 20.664577-0.200627 11.23511-3.009404 20.664577-6.620689 20.664577zM983.724138 424.326019h-292.915361v37.115987a64.381191 64.381191 0 0 1-64.200627 64.200627H65.655172a64.381191 64.381191 0 0 1-64.200627-64.200627v-154.683385a64.381191 64.381191 0 0 1 64.200627-64.200627h560.952978a64.381191 64.381191 0 0 1 64.200627 64.200627v37.115987h292.915361a40.225705 40.225705 0 0 1 0 80.451411z m-373.166144-101.316615H81.705329v122.583072h528.852665zM106.583072 733.893417h49.354232c3.611285 0 6.62069 9.22884 6.62069 20.664577 0 11.435737-3.009404 20.664577-6.62069 20.664577H106.583072c-3.611285 0-6.62069-9.22884-6.62069-20.664577 0-11.435737 3.009404-20.664577 6.62069-20.664577zM107.987461-6.821317h49.354232c3.611285 0 6.62069 9.22884 6.620689 20.664577s-3.009404 20.664577-6.620689 20.664577H107.987461c-3.611285 0-6.62069-9.22884-6.62069-20.664577S104.376176-6.821317 107.987461-6.821317zM983.724138 794.683386H689.404389V831.799373a64.381191 64.381191 0 0 1-64.200627 64.200627H64.250784A64.381191 64.381191 0 0 1 0.050157 831.799373v-154.683386a64.381191 64.381191 0 0 1 64.200627-64.200626h560.952978a64.381191 64.381191 0 0 1 64.200627 64.200626V714.231975h254.194357v-678.721003h-252.789969v55.373041a64.381191 64.381191 0 0 1-64.200627 64.200626H65.655172a64.381191 64.381191 0 0 1-64.200627-64.200626v-154.683386a64.381191 64.381191 0 0 1 64.200627-64.200627h560.952978a64.381191 64.381191 0 0 1 64.200627 64.200627V-44.940439h292.915361a40.245768 40.245768 0 0 1 40.125392 40.125392V754.15674a40.125392 40.125392 0 0 1-40.125392 40.526646zM609.153605 693.366771H80.30094V815.949843h528.852665z m1.404389-740.714733H81.705329v122.583072h528.852665z"  horiz-adv-x="1024" />

      <glyph glyph-name="bi-color" unicode="&#59030;" d="M586.93098 384.258746a277.795149 277.795149 0 0 1 132.561263 236.208088C719.853172 771.25502 593.828738 894.63264 443.020501 894.63264H42.108403a42.108403 42.108403 0 0 1-42.108403-42.108403v-938.415834a42.108403 42.108403 0 0 1 42.108403-42.108403h396.761412c150.587669 0 275.9504 118.765748 280.502118 269.293262a273.784825 273.784825 0 0 1-132.440953 242.845174s-0.040103 0.100258 0 0.12031zM110.664893 814.426158h332.636331c106.754827 0 196.285312-87.324807 195.984537-194.059582a197.729029 197.729029 0 0 0-197.508461-196.947015H110.664893A30.458411 30.458411 0 0 0 80.206482 453.877972V783.987799a30.458411 30.458411 0 0 0 30.458411 30.438359z m331.112407-862.219676H110.664893A30.458411 30.458411 0 0 0 80.206482-17.335107V312.774719a30.458411 30.458411 0 0 0 30.458411 30.43836h332.636331c106.754827 0 196.285312-87.324807 195.984537-194.059582a197.729029 197.729029 0 0 0-197.508461-196.947015zM983.692393 895.976098c-21.77606-0.74191-38.719679-19.329762-38.719679-41.105821v-940.420997c0-21.77606 16.943619-40.363912 38.719679-41.105821a40.103241 40.103241 0 0 1 41.486803 40.10324V855.872858a40.103241 40.103241 0 0 1-41.486803 40.10324z"  horiz-adv-x="1025" />

      <glyph glyph-name="filed-color" unicode="&#59031;" d="M702.7 646.4h-381.4a40 40 0 1 1 0-80H472v-404.8a40 40 0 1 1 80 0V566.4h150.7a40 40 0 0 1 0 80zM924-128H100a100.12 100.12 0 0 0-100 100V796A100.12 100.12 0 0 0 100 896h824a100.12 100.12 0 0 0 100-100v-824a100.12 100.12 0 0 0-100-100zM100 816a20.26 20.26 0 0 1-20-20v-824a20.26 20.26 0 0 1 20-20h824a20.26 20.26 0 0 1 20 20V796a20.26 20.26 0 0 1-20 20z"  horiz-adv-x="1024" />

      <glyph glyph-name="invoking-color" unicode="&#59032;" d="M965.12888-128H64.074946a64.074946 64.074946 0 0 0-64.074946 64.074946V138.071215a64.074946 64.074946 0 0 0 64.074946 64.074946h901.053934a64.074946 64.074946 0 0 0 64.074947-64.074946v-201.996269a64.074946 64.074946 0 0 0-64.074947-64.074946z m-885.035197 80.093683h869.016461v169.958795H80.093683zM821.220555 720.492454H141.805866l107.125301 107.125301A40.046842 40.046842 0 1 1 192.224839 884.243989L15.317917 707.256973a40.046842 40.046842 0 0 1 0-56.626234L192.224839 473.643723a40.046842 40.046842 0 0 1 56.626234 56.626234l-110.128814 110.128814h642.351338v-322.737495a40.046842 40.046842 0 1 1 80.093683 0V680.445613a40.046842 40.046842 0 0 1-39.946725 40.046841z"  horiz-adv-x="1029" />

      <glyph glyph-name="issue-color" unicode="&#59033;" d="M505.994758-128a40.178922 40.178922 0 0 0-40.178922 40.178922v255.136153a40.178922 40.178922 0 0 0 6.930864 22.580554L929.922561 863.274268A40.178922 40.178922 0 1 0 996.478945 818.13325L546.17368 155.000235v-242.821313a40.178922 40.178922 0 0 0-40.178922-40.178922zM991.536938-112.892725a39.957938 39.957938 0 0 0-19.567135 5.102723L638.886542 78.158048a40.178922 40.178922 0 0 0 39.174448 70.172486l273.377384-152.679902V795.552696L131.969175 453.067567l277.576081-154.929923a40.178922 40.178922 0 1 0-39.154359-70.152397l-349.757514 195.209291a40.178922 40.178922 0 0 0 4.017892 72.161344L976.047964 892.886134A40.178922 40.178922 0 0 0 1031.71586 855.821078v-928.534882a40.178922 40.178922 0 0 0-40.178922-40.178921z"  horiz-adv-x="1031" />

      <glyph glyph-name="platform-color" unicode="&#59034;" d="M506.41891-128c-34.146669 0-65.452784 8.541668-96.738894 22.764446L54.010549 91.062786c-19.86388 11.382223-28.405548 36.987224-17.023325 56.791092s37.027232 28.565579 56.891112 17.183356l355.629458-193.457785a145.688455 145.688455 0 0 1 119.483337 0l358.470014 193.457785c20.003907 11.382223 45.528892 2.840555 56.911115-17.083337s2.840555-45.508888-17.063332-56.891111L605.978355-102.394999a207.620551 207.620551 0 0 0-99.559445-25.605001zM506.41891 81.56093c-34.146669 0-65.452784 8.541668-96.738894 22.764446L54.010549 300.623716c-19.903887 11.382223-28.445556 36.987224-17.063333 56.911115S74.014456 385.900371 93.878336 374.598164l355.629458-193.457785a145.848486 145.848486 0 0 1 119.483337 0l358.470014 193.457785c20.003907 11.382223 45.528892 2.840555 56.911115-17.063333s2.840555-45.528892-17.063332-56.911115l-361.330573-193.457785a207.620551 207.620551 0 0 0-99.559445-25.605001zM506.41891 297.88318c-34.146669 0-65.452784 8.521664-96.738894 22.764446L54.010549 516.905958c-34.006642 19.903887-54.010549 48.369447-54.010549 79.655558s20.003907 62.592225 56.891112 82.516116l361.330572 193.457785c65.43278 31.286111 136.546669 31.286111 196.298339 0h2.840555L970.18949 679.077632c34.126665-20.003907 54.010549-48.369447 54.010549-79.675561s-20.003907-62.592225-56.891111-82.496113l-361.330573-193.457785A207.380504 207.380504 0 0 0 506.41891 297.88318zM88.197226 596.561516c2.840555-2.840555 2.840555-2.840555 8.541668-5.68111l352.7689-193.457784a145.688455 145.688455 0 0 1 119.483337 0l358.470014 193.457784a35.066849 35.066849 0 0 1 8.541668 5.68111c-2.840555 2.840555-2.840555 2.840555-8.541668 5.701113L577.532799 795.720414a152.549795 152.549795 0 0 1-122.323891 0l-358.470014-193.457785a35.406915 35.406915 0 0 1-8.541668-5.701113z"  horiz-adv-x="1024" />

      <glyph glyph-name="file-color" unicode="&#59035;" d="M295.68 384a37.1 37.1 0 0 1 0-74.2h432.64a37.1 37.1 0 0 1 0 74.2zM728.32 209.58H295.68a37.1 37.1 0 1 1 0-74.2h432.64a37.1 37.1 0 0 1 0 74.2zM1023.82 618.32c-0.1 0.9-0.26 1.8-0.4 2.68 0 0.3 0 0.62-0.14 0.92-0.22 1.06-0.5 2-0.78 3.12l-0.12 0.38a31.1 31.1 0 0 1-1.08 3.08c0 0.1 0 0.22-0.14 0.34-0.38 0.94-0.84 1.86-1.3 2.78-0.1 0.16-0.16 0.34-0.26 0.5-0.44 0.84-0.94 1.64-1.44 2.42l-0.42 0.7c-0.5 0.74-1.04 1.44-1.58 2.14-0.2 0.26-0.38 0.54-0.6 0.78a31.16 31.16 0 0 1-2.32 2.56l-0.1 0.14L768.86 885.14l-0.16 0.12c-0.8 0.8-1.66 1.58-2.54 2.3l-0.76 0.58c-0.7 0.54-1.42 1.1-2.16 1.6l-0.66 0.4c-0.8 0.52-1.62 1.02-2.46 1.46l-0.46 0.24q-1.38 0.72-2.82 1.32l-0.3 0.12c-1.02 0.4-2 0.78-3.12 1.1l-0.32 0.1C752 894.78 751 895.06 750 895.28l-0.96 0.12c-0.9 0.16-1.8 0.32-2.72 0.42-1.22 0.18-2.46 0.18-3.7 0.18H59.36A59.42 59.42 0 0 1 0 836.64v-905.28A59.42 59.42 0 0 1 59.36-128h905.28A59.42 59.42 0 0 1 1024-68.64V614.62c0 1.24 0 2.48-0.18 3.7z m-271.06 178l171.52-171.52h-171.52z m197.04-850H74.2V821.8h604.36v-207.18a64.14 64.14 0 0 1 64-64H949.8z"  horiz-adv-x="1024" />

      <glyph glyph-name="name-color" unicode="&#59036;" d="M924-128H100a100.12 100.12 0 0 0-100 100V796A100.12 100.12 0 0 0 100 896h824a100.12 100.12 0 0 0 100-100v-824a100.12 100.12 0 0 0-100-100zM100 816a20.26 20.26 0 0 1-20-20v-824a20.26 20.26 0 0 1 20-20h824a20.26 20.26 0 0 1 20 20V796a20.26 20.26 0 0 1-20 20zM442 184.7h-54.38v398.6H442a40 40 0 0 1 0 80h-188.6a40 40 0 0 1 0-80h54.3v-398.6h-54.38a40 40 0 1 1 0-80H442a40 40 0 1 1 0 80zM587.36 149.5m-40 0a40 40 0 1 1 80 0 40 40 0 1 1-80 0ZM703.82 149.5m-40 0a40 40 0 1 1 80 0 40 40 0 1 1-80 0ZM820.26 149.5m-40 0a40 40 0 1 1 80 0 40 40 0 1 1-80 0Z"  horiz-adv-x="1024" />

      <glyph glyph-name="draft" unicode="&#58885;" d="M512 896C229.205333 896 0 666.794667 0 384c0-282.752 229.205333-512 512-512 282.752 0 512 229.248 512 512 0 282.794667-229.248 512-512 512M328.021333 597.333333h322.645334c16.213333 0 29.354667-13.141333 29.354666-29.354666v-410.666667c0-16.213333-13.141333-29.312-29.354666-29.312H327.978667A29.312 29.312 0 0 0 298.666667 157.354667V567.978667c0 16.213333 13.141333 29.312 29.354666 29.312z m29.312-58.666666v-352h264.021334v352H357.333333z m29.354667-73.344h205.312v-58.666667H386.645333v58.666667z m0-146.645334h205.312v-58.666666H386.645333v58.666666z m322.645333 249.344c32.426667 0 58.666667-26.282667 58.666667-58.666666v-293.376c0-32.384-26.282667-58.624-58.666667-58.624V567.978667z"  horiz-adv-x="1024" />

      <glyph glyph-name="unknown" unicode="&#58884;" d="M512 896c282.752 0 512-229.205333 512-512 0-282.752-229.248-512-512-512-282.837333 0-512 229.248-512 512C0 666.794667 229.162667 896 512 896zM321.578667 607.786667a42.666667 42.666667 0 0 1-42.666667-42.666667v-125.056a42.666667 42.666667 0 0 1 42.666667-42.666667h125.013333a42.666667 42.666667 0 0 1 42.666667 42.666667v125.013333a42.666667 42.666667 0 0 1-42.666667 42.666667h-125.013333z m257.194666 0a42.666667 42.666667 0 0 1-42.666666-42.666667v-125.056a42.666667 42.666667 0 0 1 42.666666-42.666667h125.056a42.666667 42.666667 0 0 1 42.666667 42.666667v125.013333a42.666667 42.666667 0 0 1-42.666667 42.666667h-125.013333z m-257.194666-257.237334a42.666667 42.666667 0 0 1-42.666667-42.666666v-125.013334a42.666667 42.666667 0 0 1 42.666667-42.666666h125.013333a42.666667 42.666667 0 0 1 42.666667 42.666666v125.013334a42.666667 42.666667 0 0 1-42.666667 42.666666h-125.013333z m257.194666 0a42.666667 42.666667 0 0 1-42.666666-42.666666v-125.013334a42.666667 42.666667 0 0 1 42.666666-42.666666h125.056a42.666667 42.666667 0 0 1 42.666667 42.666666v125.013334a42.666667 42.666667 0 0 1-42.666667 42.666666h-125.013333z"  horiz-adv-x="1024" />

      <glyph glyph-name="normal" unicode="&#58883;" d="M512 896C229.205333 896 0 666.794667 0 384c0-282.752 229.205333-512 512-512 282.752 0 512 229.248 512 512 0 282.794667-229.248 512-512 512M418.346667 592.981333a21.674667 21.674667 0 0 1-29.866667-3.626666 20.48 20.48 0 0 1-4.48-12.8v-385.152c0-11.477333 9.6-20.778667 21.333333-20.736 4.693333 0 9.301333 1.536 13.013334 4.309333l256 192.554667a20.394667 20.394667 0 0 1 0 32.853333l-256 192.597333z"  horiz-adv-x="1024" />

      <glyph glyph-name="freezed" unicode="&#58882;" d="M512 896C229.205333 896 0 666.794667 0 384c0-282.752 229.205333-512 512-512 282.752 0 512 229.248 512 512 0 282.794667-229.248 512-512 512M466.005333 448.682667V570.666667h74.666667v-122.026667l105.642667 61.013333 37.333333-64.64L578.005333 384l105.642667-61.013333-37.333333-64.64-105.642667 61.013333v-122.026667h-74.666667v122.026667l-105.642666-61.013333-37.333334 64.64L428.672 384l-105.642667 61.013333 37.333334 64.64 105.642666-61.013333z"  horiz-adv-x="1024" />

      <glyph glyph-name="logowenzi" unicode="&#58976;" d="M991.313154-10.21464h56.356631l-63.682994-112.713263h-118.348926C507.209686-118.419373 338.139791-83.478261 194.43038 63.048982 174.141992 0.493121 153.290039-62.062741 129.620253-118.419373H0a2642.562466 2642.562466 0 0 1 156.10787 486.357733h117.221794c-12.962025-60.865162-28.741882-127.365988-46.776004-196.121079a672.334618 672.334618 0 0 1 49.03027-56.356632l42.83104 312.215741h-225.426528l14.089158 95.806274h189.358283l16.90699 135.255916H162.3071l14.089158 96.933407h151.035773L346.029719 896h117.221794l-18.597688-140.89158h142.018712l-13.525591-96.933406H432.818932l-16.906989-134.69235h163.434232L563.566318 424.294992H434.509631l-16.906989-126.238856h119.476059l-14.089158-95.806274h-118.348927l-21.979086-161.179967c138.637314-46.776004 282.910292-50.157402 608.651624-51.284535z m0 81.15355h-426.056137L619.92295 445.146946h366.318107c46.212438 0 56.356632-11.271326 50.720968-64.246561z m101.441937 732.636214c-12.398459-90.170611-27.61475-185.976885-45.648872-303.198679H845.349477l-32.686846 90.170611h139.764447c9.580627 56.356632 18.597688 112.713264 26.487617 174.705558 0 11.271326 0 14.652724-12.398459 14.652724h-101.441938A1243.790864 1243.790864 0 0 0 715.729224 501.503577h-134.128784a952.427078 952.427078 0 0 1 169.069896 278.965328h-120.039626L605.270226 869.512383h429.437534c52.975234-1.690699 67.627958-16.343423 60.301596-68.191524z m-190.485416-450.853055h-181.468354L695.440837 163.363786h194.993946l25.360484 174.705559c2.254265 10.70776-2.254265 14.089158-11.271326 14.089158zM2232.849752 536.444689L2220.451293 439.511282H1235.900936l12.962025 96.933407h293.054485c-21.41552 48.466703-45.085305 100.878371-65.937259 154.980738h125.111723c20.851954-45.085305 46.776004-99.187672 73.827187-154.417172h146.527243a1658.012108 1658.012108 0 0 1 98.624106 153.853605h144.272977a1797.212988 1797.212988 0 0 0-107.641167-154.417171zM2093.648872 276.07705l-56.356632-400.132086-754.051734 2.817832L1352.559163 367.374794h672.898184c69.318657-2.254265 78.335718-22.542653 68.191525-91.297744z m109.331865 435.073198H1339.597138l12.962025 95.806274h355.046781c-10.144194 27.051183-19.724821 56.356632-29.869015 85.66208h142.018712c7.889928-25.924051 17.470556-56.356632 27.61475-85.66208h368.572372zM1916.125482-27.685195l15.779856 105.950467h-490.302696l-15.779857-105.950467z m-446.908091 299.253715l-13.525591-96.933407h490.302696l11.271327 80.026417c0 11.271326 0 16.90699-12.398459 16.90699zM2715.262521-128c-43.958173 33.813979-94.679141 67.627958-143.709411 99.751238a803.64557 803.64557 0 0 0-281.78316-98.624105l35.504679 112.713263a619.92295 619.92295 0 0 1 151.035773 45.648872c-43.958173 27.051183-83.407815 50.157402-112.713264 67.064392l70.44579 96.36984h-120.039626l12.398459 90.170611h169.069896c12.398459 16.90699 24.233352 34.941112 34.377545 51.848101h127.365988c-11.271326-18.034122-23.106219-34.941112-34.377546-51.848101h180.341222c37.195377 0 47.339571-4.508531 47.339571-36.068244a152.162906 152.162906 0 0 0-43.958173-101.441937 1085.992295 1085.992295 0 0 0-140.328013-112.713264c42.83104-24.796918 84.534948-49.593836 117.221794-71.572922z m-254.16841 467.196478h-126.238855a1784.814529 1784.814529 0 0 1 141.455146 210.210236h105.950468a2325.274629 2325.274629 0 0 0-121.166759-210.210236z m138.073748 244.587782h-222.045129l13.525591 93.552009h222.608696l32.12328 211.900935h112.713264l-30.996148-211.900935h225.426528l-15.216291-93.552009h-225.426527l-32.12328-220.917997h-112.713264z m-108.768299 116.094661c-25.924051 56.356632-49.593836 107.641167-75.517887 158.362136h109.331866c21.41552-43.958173 47.339571-92.424876 80.026417-157.798569z m86.789213-616.541552a606.960925 606.960925 0 0 1 133.565217 100.878371c4.508531 4.508531 4.508531 9.017061-3.381398 9.017061h-145.40011c-19.161255-28.178316-38.32251-52.975234-56.356632-74.390754z m723.055586 493.684095a1561.642267 1561.642267 0 0 0-156.671437-406.894882 2152.259769 2152.259769 0 0 1 147.654376-297.563016h-138.637315a1883.438635 1883.438635 0 0 0-81.717116 184.286186 1495.141442 1495.141442 0 0 0-154.980737-183.159053h-162.3071a1934.72317 1934.72317 0 0 1 269.3847 313.342873 2190.018712 2190.018712 0 0 0-70.445789 241.206384 532.570171 532.570171 0 0 0-56.356632-39.449642c6.762796-14.652724 14.652724-30.432581 22.542652-46.212438h-123.98459c-27.051183 67.627958-52.411668 136.383049-74.95432 206.265272H2817.831591c19.161255-45.085305 43.394606-94.679141 70.445789-149.908641l18.597689 135.255917c68.755091 59.73803 112.713264 143.709411 164.561365 353.356081h112.713263a1650.122179 1650.122179 0 0 0-61.428728-208.519537h266.003302l-11.834893-101.441938z m-556.239956 122.293891c31.559714 45.085305 69.882223 109.331866 96.36984 157.235003h112.713264c-26.487617-47.339571-65.937259-112.713264-92.988443-157.798569z m442.39956-122.293891H3077.072097a450.853054 450.853054 0 0 0-120.039626-145.963676h103.696203a1203.777655 1203.777655 0 0 1 32.686846-119.47606 1137.840396 1137.840396 0 0 1 92.988443 265.439736z"  horiz-adv-x="3388" />

      <glyph glyph-name="logobiaoshi" unicode="&#58980;" d="M1062.126063 321.407212l-211.344474-446.40516 126.686602-3.002052 211.344474 447.00557-126.686602 2.401642zM777.531516-124.397537l127.587218 268.68367-126.686603 2.401642-127.287012-268.08326 126.386397-3.002052zM1350.923483 733.588977c-7.50513 7.50513-180.123131 146.500147-280.391674 160.609792a190.930519 190.930519 0 0 1-90.061566-9.906773 210.143653 210.143653 0 0 1-110.47552-92.763412L688.070361 385.651129a32.722369 32.722369 0 0 0-24.016418-15.610672 347.937848 347.937848 0 1 1-214.946936-480.328349l-45.030783 188.829082a155.206098 155.206098 0 1 0 99.367927 150.102609l27.61888-300.205218a350.639695 350.639695 0 0 1 142.597479 172.01759L930.636177 616.508942a108.374084 108.374084 0 0 0 129.98886 43.529756c36.024626-12.608619 159.408971-78.353562 192.431545-64.844327C1327.507476 625.815303 1357.227792 726.083846 1350.923483 733.588977z"  horiz-adv-x="1351" />

      <glyph glyph-name="chaoyinshuxitonglogo" unicode="&#58979;" d="M1062.294602 321.463861l-211.381519-446.477585 126.477585-2.986276 211.557182 446.94602-126.653248 2.517841zM777.485819-124.369625l127.707228 268.53065-126.711803 2.517841-127.47301-268.062215 126.477585-2.986276zM1349.796889 733.628545C1342.243367 741.123513 1171.088747 880.073193 1069.438243 894.301921A191.47301 191.47301 0 0 1 978.444648 884.289113a210.795974 210.795974 0 0 1-110.667887-92.63312l-179.820677-406.543459a32.380604 32.380604 0 0 0-23.948765-15.692589 348.281793 348.281793 0 1 1-214.953339-481.141811L404.025618 77.05764a153.119854 153.119854 0 0 0-55.743825-10.364136A155.169259 155.169259 0 1 0 503.568161 226.3129l27.57914-301.145471a349.569991 349.569991 0 0 1 142.697164 171.857274l257.990851 519.494968c25.99817 43.037511 80.161025 61.306496 129.990851 43.623055 36.186642-12.764867 159.619396-78.404392 192.468435-64.995425 73.075938 29.804209 103.05581 131.044831 95.502287 138.481244zM2024.63678-55.333943H2061.116194l-39.875572-69.679781h-74.832571c-226.956999 0-335.04849 22.016468-424.695334 114.53248-12.823422-39.875572-25.646844-78.287283-40.578225-114.53248H1399.451052A1652.581885 1652.581885 0 0 1 1496.768527 181.635865h74.012809c-7.846295-38.411711-17.566331-80.395242-29.277219-123.784081a431.194876 431.194876 0 0 1 31.26807-37.006404l26.349496 197.094236h-142.872827l9.251601 61.89204h119.509607l10.656908 85.313815h-95.326624l8.548948 61.189387H1604.391583L1615.57548 515.396157h74.012809l-11.359561-88.94419h89.588289l-8.490393-61.189387h-88.241537l-10.656908-85.313815h103.114364l-9.251601-61.89204h-81.976212l-10.656907-79.69259h75.418115l-8.548948-60.486733h-74.539799l-13.46752-101.709058c87.480329-30.74108 178.532479-31.502287 384.117109-31.502287z m1.405306 51.235132h-268.881976l31.326624 234.74474h231.172918c29.277219 0 36.303751-7.085087 32.029278-40.519671zM2088.695334 456.84172c-7.846295-56.914913-17.097896-117.401647-28.457457-191.355901h-129.522415L1910.1043 322.166514h88.241537c5.855444 35.132662 11.359561 72.548948 16.336688 110.258006 0.702653 7.085087-1.405306 9.251601-7.846294 9.251601H1942.836231a784.10247 784.10247 0 0 0-93.218665-176.42452h-84.611162c51.176578 64 82.503202 113.068618 105.983532 176.42452h-75.418115l-16.336688 56.914913h270.989936c33.434584 0.292772 42.686185-8.958829 38.470265-41.749314z m-119.568161-283.871912h-115.937786l-15.634035-119.509607h122.964319l15.634034 110.258006c1.522415 7.202196-1.288198 9.310156-7.026532 9.310155zM2807.15828 291.835316l-7.846295-61.189387H2178.225069l7.846294 61.189387h184.973468c-13.526075 30.623971-28.457457 63.297347-41.983532 97.493138h78.931382c13.526075-28.457457 29.921317-62.653248 46.84355-97.493138h92.516011a928.439158 928.439158 0 0 1 61.833485 97.493138h91.110705a1044.786825 1044.786825 0 0 0-67.630375-97.493138z m-87.480329-164.303751l-35.601098-252.545289h-475.930467l43.447393 308.757548h424.636779c44.150046 0 49.829826-12.823422 43.447393-56.212259z m68.274474 274.561756h-544.907594l9.251601 59.081427h224.087831c-6.440988 17.039341-12.823422 35.542543-19.205855 54.045746h89.588289c4.977127-16.336688 11.418115-35.542543 17.566331-54.045746h232.63678z m-179.293688-466.678865l9.954255 66.869167h-309.401647l-9.954254-66.869167zM2326.250686 123.081427l-8.548948-61.189387h309.460202l7.143641 50.53248c0.702653 7.085087 0 10.656908-7.846295 10.656907zM3113.046661-126.41903c-27.754803 21.313815-59.784081 42.62763-91.05215 62.594693-54.1043-29.921317-115.99634-54.806953-177.888381-62.594693l22.075023 70.265325a394.012809 394.012809 0 0 1 95.326624 29.277218c-27.754803 17.097896-52.698994 31.326624-70.265325 41.983532l43.974382 61.130832h-76.120768l7.78774 56.914913H2974.565416c7.78774 10.656908 14.931382 22.016468 21.313815 32.731931h80.395243c-7.085087-11.418115-14.228728-22.075023-21.313815-32.731931h113.771271c23.421775 0 29.921317-2.869167 29.921318-22.777676a96.087832 96.087832 0 0 0-27.754803-64 674.3129 674.3129 0 0 0-88.241537-72.548947c27.05215-15.692589 53.401647-31.326624 74.012808-44.852699z m-161.493139 294.470265h-79.692589a1083.257091 1083.257091 0 0 1 88.944191 133.035682h66.869167a1396.581885 1396.581885 0 0 0-76.120769-133.035682zM3038.331199 322.166514H2898.444648l8.548948 59.022873h140.120768L3066.788655 515.396157h69.738335l-19.205856-133.738334h142.228729L3250.356816 322.166514H3109.240622l-19.908509-139.47667h-71.612076z m-68.977128 73.544373c-16.395242 35.542543-31.326624 67.571821-47.663312 99.542544h68.977128c13.526075-27.754803 29.862763-58.554437 50.532479-99.542544z m56.21226-389.15279A403.615737 403.615737 0 0 1 3109.240622 70.382434c2.869167 2.810613 2.869167 5.855444-2.10796 5.855443H3015.553522c-12.062214-17.566331-24.182983-33.434584-33.434583-46.843549z m455.26075 313.032022c-24.885636-98.898445-54.806953-181.518756-98.195791-256.819762a1357.350412 1357.350412 0 0 1 93.6871-187.784081h-87.246112a1052.750229 1052.750229 0 0 0-51.937786 115.937786 1004.384263 1004.384263 0 0 0-97.493138-115.937786h-102.411711c53.343092 54.045746 115.937786 115.937786 169.280879 198.440988A1314.83989 1314.83989 0 0 0 3261.482159 224.966148a334.638609 334.638609 0 0 0-37.006404-24.885636c4.274474-9.251601 9.251601-19.205855 14.228728-29.277218h-77.99451c-17.097896 42.686185-33.434584 86.075023-47.663312 130.166514h64c12.120769-28.457457 27.754803-59.725526 44.852699-94.623971l11.35956 85.37237c43.388838 37.709058 72.548948 91.05215 103.172919 223.385178h70.265325a984.827081 984.827081 0 0 0-38.411711-131.630375h167.875572l-7.085087-64z m-351.326624 76.120768a1097.427264 1097.427264 0 0 1 60.486734 99.542544h71.143642c-16.395242-29.862763-40.988106-72.548948-58.554438-99.542544z m279.597439-76.120768H3339.945105a294.470265 294.470265 0 0 0-75.359561-92.457457h65.405307a754.005489 754.005489 0 0 1 20.669716-75.418115 715.945105 715.945105 0 0 1 58.32022 167.875572z"  horiz-adv-x="3536" />

      <glyph glyph-name="zanwuquanxiandianjishenqing_1" unicode="&#58978;" d="M908.253199 118.202159h-187.917566a50.245339 50.245339 0 0 1-50.245339-45.220805v-150.736015a50.245339 50.245339 0 0 1 50.245339-50.245339h187.917566a50.245339 50.245339 0 0 1 50.245339 50.245339v150.736015a50.245339 50.245339 0 0 1-50.245339 45.220805z m-184.400392-53.260059h180.380765v-138.677134h-179.878312zM814.294416 215.175662a88.934249 88.934249 0 0 1-89.436703-88.431795v-64.816487h178.873406v64.816487a88.934249 88.934249 0 0 1-89.436703 88.431795z m-24.620216-88.431795a24.620216 24.620216 0 0 0 24.620216 25.122669 24.620216 24.620216 0 0 0 24.620216-25.122669h-50.245339zM478.655554 354.857704V422.688911a293.935231 293.935231 0 0 1-293.432777-285.895977 68.33366 68.33366 0 0 1 67.831207-69.84102h376.337586v67.831207H253.053984a225.60157 225.60157 0 0 0 225.60157 220.074583zM554.023562 528.204122a96.47105 96.47105 0 1 0-96.47105 95.968596 96.47105 96.47105 0 0 0 96.47105-95.968596m76.875368 0a173.346418 173.346418 0 1 1-173.346418-173.346418 172.843965 172.843965 0 0 1 173.346418 173.346418zM835.899912 29.26791h-43.210992v-79.387635h43.210992v79.387635zM580.653592 896H173.163896A110.539745 110.539745 0 0 1 64.633965 784.455348V-8.416094a110.037291 110.037291 0 0 1 108.529931-111.544652h429.597645v72.855741H173.163896a36.679097 36.679097 0 0 0-36.176644 38.688911V784.455348a36.679097 36.679097 0 0 0 36.176644 37.181551h374.830226l243.187438-266.300294v-329.609421h72.353288V583.473994z"  horiz-adv-x="1024" />

      <glyph glyph-name="qingchuangjianmuluhuokanban" unicode="&#58977;" d="M574.52425 896H165.630109A110.920729 110.920729 0 0 1 56.726121 784.070901V-11.533235a110.416544 110.416544 0 0 1 108.903988-111.929099h431.078287v73.106844H165.630109a36.805515 36.805515 0 0 0-36.301329 38.822255V784.070901a36.805515 36.805515 0 0 0 36.301329 37.3097h376.122108l244.025603-267.218119v-330.745446h72.602659V582.396849zM237.224398 685.250615l128.063023-130.583948a6.050222 6.050222 0 0 1 5.041851 0h196.128016a192.59872 192.59872 0 0 0-140.667651-179.994092 188.061054 188.061054 0 0 0-209.23683 83.190547 196.128016 196.128016 0 0 0 19.159035 228.900049zM387.975752 757.349089v-182.010832H560.911252c3.529296 0 3.529296 0 3.529296 4.033481a190.581979 190.581979 0 0 1-108.903989 161.339242 185.035943 185.035943 0 0 1-58.98966 15.125554zM371.337643 581.892664V755.332349A195.623831 195.623831 0 0 1 312.347982 744.744461a188.061054 188.061054 0 0 1-61.006401-39.830625zM173.39456 321.985229l535.948794 1.109207 0.151256-73.611029-535.948794-1.109207zM596.708396 205.266371l-423.011325-1.00837v-74.115214l423.011325 1.512555V205.266371zM596.708396 88.295421l-423.011325-1.00837v-73.611029l423.011325 1.00837v73.611029zM967.284467 60.565239h-105.878878V169.973412h-77.140325v-109.408173h-105.374692v-79.157066h105.374692v-108.903988h77.140325v108.903988h105.878878v79.157066z"  horiz-adv-x="1024" />

      <glyph glyph-name="zichan" unicode="&#58975;" d="M64 25.6C28.672 25.6 0 42.8032 0 64c16.2816 37.7856 33.3312 63.3856 51.2 76.8 26.7776 20.1216 67.072 38.4 102.4 38.4h716.8c23.552 0 57.7024-12.8 102.4-38.4l51.2-76.8c0-21.1968-28.672-38.4-64-38.4H64z m823.4496-51.2c18.8928 0 34.1504-11.4688 34.1504-25.6s-15.2576-25.6-34.1504-25.6H136.5504C117.6576-76.8 102.4-65.3312 102.4-51.2s15.2576 25.6 34.1504 25.6h750.8992zM921.6 512c0-212.0704-183.3984-384-409.6-384s-409.6 171.9296-409.6 384C102.4 724.0704 285.7984 896 512 896s409.6-171.9296 409.6-384zM717.824 530.944l17.408 42.496c-75.776 13.824-126.976 38.912-154.112 75.264 3.072 9.216 5.632 18.432 7.68 28.672h74.752c-5.12-17.408-11.776-33.28-19.456-47.104l46.592-13.824c9.216 24.576 16.896 49.664 22.528 74.24v29.184h-200.704c4.096 9.216 7.68 18.432 10.752 28.672l-47.616 6.144c-11.264-34.816-33.28-64.512-65.536-88.064l28.672-37.888c18.432 14.336 34.816 30.72 48.128 48.64h55.808c-6.656-23.552-18.432-43.008-34.816-57.856-21.504-18.432-56.32-32.256-104.448-42.496l17.92-43.52c58.368 14.336 99.84 33.28 123.904 57.344 5.632 6.144 10.752 12.288 15.872 19.456 32.256-37.888 84.48-64.512 156.672-79.36zM377.856 670.208l26.112 39.424c-25.6 14.336-54.272 26.112-84.992 35.84l-24.064-36.352c28.16-9.216 55.808-22.016 82.944-38.912zM317.44 541.696c37.888 22.528 69.632 46.592 95.232 72.704l-28.672 33.28c-26.624-24.576-59.904-47.104-98.816-68.608l32.256-37.376z m74.752-174.08V480.768h238.08v-108.032h49.152V525.824H343.552v-158.208h48.64z m-80.896-87.552c95.744 8.192 156.16 25.6 181.76 52.736 23.552 20.992 39.424 64.512 46.592 130.048l-48.64 4.096c-4.096-50.176-17.408-84.992-39.936-105.472-25.6-20.992-78.336-33.28-158.72-37.376l18.944-44.032z m392.704-4.096l26.624 40.448c-54.784 23.552-115.2 43.52-181.248 59.904l-24.576-36.864c61.44-15.36 120.832-36.352 179.2-63.488zM921.6 179.2a102.4 102.4 0 0 0 88.6784-153.6H13.7216A102.4 102.4 0 0 0 102.4 179.2h819.2z"  horiz-adv-x="1024" />

      <glyph glyph-name="hangweifenxi" unicode="&#58974;" d="M810.8032 307.776c104.576 0 189.6064-83.4304 192.2816-187.3408l0.0768-4.6592v-0.3584a17.4464 17.4464 0 0 0-15.8208-17.408l-1.6896-0.0896-87.424 0.0256h-87.424c-9.664 0-17.5104 7.808-17.5104 17.472l0.0256 174.8736c0 8.8704 6.6432 16.3328 15.4368 17.3696l2.048 0.1152z m17.5104-35.9296h-0.0256v-138.944h138.944A157.5168 157.5168 0 0 1 828.3136 271.8464zM952.7808 67.8528c-20.5312-55.7824-74.432-95.7696-137.3952-95.7696-80.6528 0-146.4576 65.8048-146.4576 146.4576 0 62.208 39.0272 115.3664 93.6832 136.6528V294.9632C686.6432 272.3456 631.2448 201.856 631.2448 118.5408c0-101.5808 82.56-184.1408 184.1408-184.1408 84.0576 0 154.9312 56.3712 176.9856 133.4528h-39.5904zM509.0048 782.208c-113.3824 0-205.6576-92.2624-205.6576-205.696 0-113.3824 92.2752-205.6576 205.6576-205.6576 113.4336 0 205.696 92.2752 205.696 205.6576 0 113.4336-92.2624 205.696-205.696 205.696m0-91.4176a114.2528 114.2528 0 0 0 114.2912-114.2784c0-63.104-51.1488-114.24-114.304-114.24a114.2272 114.2272 0 0 0-114.2272 114.24c0 63.1424 51.1488 114.2784 114.24 114.2784M509.184 370.8288v91.4176h-0.896c-212.992 0-389.9136-172.7616-394.4704-385.3056v-0.512c-1.024-51.2 40.1664-93.184 91.3664-93.184h304V74.624H205.248c3.648 164.864 138.5216 296.7296 303.9616 296.2176"  horiz-adv-x="1024" />

      <glyph glyph-name="shujuzichan" unicode="&#58973;" d="M891.9424 204.4672l-75.392-42.6496a2.2784 2.2784 0 0 1-1.1648-1.088l-34.304-67.1744c-1.1776-2.4448 1.536-4.8896 3.8016-3.5968l74.752 41.28a2.56 2.56 0 0 1 1.1136 1.152l34.9184 68.544c1.0368 1.8944-0.5504 3.8656-2.3424 3.8656a3.456 3.456 0 0 1-1.3824-0.3328zM832 256c-56.448 0-102.4-45.9648-102.4-102.4256C729.6 97.1008 775.552 51.2 832 51.2s102.4 45.9008 102.4 102.3744C934.4 210.0224 888.448 256 832 256m0-256c-84.736 0-153.6 68.9408-153.6 153.6s68.864 153.6 153.6 153.6c84.6592 0 153.6-68.9408 153.6-153.6s-68.9408-153.6-153.6-153.6M812.2368 770.8416H148.2112c-50.6112 0-92.0192-40.6144-92.0192-90.2784v-567.8464c0-50.048 41.408-90.2784 92.032-90.2784h450.5344v90.2784H148.224V680.5632h664.0256v-324.096h90.2784V680.576a90.24 90.24 0 0 1-90.2784 90.2784M658.9952 567.104l38.8096-33.408-202.9312-235.776-98.304 113.152-107.904-132.8128-39.7312 32.2816 146.3296 180.096 99.4176-114.432z"  horiz-adv-x="1024" />

      <glyph glyph-name="shujukanban" unicode="&#58969;" d="M675.456-17.5104h57.088V167.3728h-57.088zM773.6064-17.5104h45.6832v256h-45.696zM873.1648-17.5104h45.6704V323.8272h-45.6704zM235.9168 553.664v-142.2208h68.608V553.6768zM806.0672 782.208H148.3136c-50.2912 0-91.4176-41.1264-91.4176-91.4176v-575.0272a91.4176 91.4176 0 0 1 91.4176-91.4176h452.4928v91.4176h-452.48V690.7904h657.7408v-300.3136h91.4176V690.7904a91.392 91.392 0 0 1-91.4176 91.4304"  horiz-adv-x="1024" />

      <glyph glyph-name="shujujieru" unicode="&#58970;" d="M812.2368 783.6416H148.2112c-50.6112 0-92.0192-40.6144-92.0192-90.2784v-567.8464c0-50.048 41.408-90.2784 92.032-90.2784h450.5344v90.2784H148.224V693.3632h664.0256v-324.096h90.2784V693.376a90.24 90.24 0 0 1-90.2784 90.2784M915.6096 127.8336H894.72v-13.44c-20.8128 0-19.1104 3.3664-29.5296 6.72-13.8752 6.72-24.2816 13.44-34.688 30.2464-10.4192 13.44-17.3568 23.5136-27.776 33.6H961.536v-30.2464L1024 198.4l-62.464 47.04v-30.2464H787.904c10.4064 10.0864 20.8128 20.16 27.7632 33.6 13.8752 16.8064 20.8128 26.88 34.688 30.2464a224.1664 224.1664 0 0 0 55.5264 6.72c6.9376-10.0864 17.3568-20.16 31.232-20.16 20.8256 0 34.688 16.7936 34.688 33.6 0 16.7936-17.344 33.6-34.688 33.6-13.8752 0-24.2944-6.72-31.232-20.16-27.7632 0-48.576-3.3664-65.92-10.0864-20.8256-6.72-34.7136-23.5136-48.5888-43.6736-13.8752-20.16-24.2944-30.2464-38.1696-36.9664-10.4064-6.72-20.8256-10.0736-34.7008-10.0736-6.9376 23.5136-27.7632 40.32-52.0576 40.32-31.232 0-52.0448-23.5264-52.0448-53.76 0-30.2464 24.2944-53.76 52.0448-53.76 24.2944 0 45.12 16.7936 52.0576 36.9536h41.6384c-1.6768-2.24 2.112-6.72 11.3664-13.44 13.8752-6.72 24.2816-20.16 38.1696-36.9536 13.8752-20.16 27.7632-33.6 48.576-43.6864 17.3568-6.72 15.6544-10.0736 39.936-10.0736V64h59.008v63.8336h-41.5872zM708.6976 0L640 57.6l68.6976 57.6v-36.3776h89.6c11.9424 0 20.9024-9.088 20.9024-21.2224 0-12.1216-8.96-21.2224-20.9024-21.2224h-89.6V0zM658.9952 579.904l38.8096-33.408-202.9312-235.776-98.304 113.152-107.904-132.8128-39.7312 32.2816 146.3296 180.096 99.4176-114.432z"  horiz-adv-x="1024" />

      <glyph glyph-name="shujutansuo" unicode="&#58971;" d="M661.0432 162.176l183.0144-183.0016 73.216 73.216L734.2592 235.392zM458.8416 839.1296c-221.632 0-401.92-180.3392-401.92-401.984 0-221.568 180.288-401.92 401.92-401.92 221.6448 0 401.92 180.352 401.92 401.92 0 221.6448-180.2752 401.984-401.92 401.984m0-91.4176c171.52 0 310.5024-139.0464 310.5024-310.5664 0-171.52-138.9824-310.4896-310.5024-310.4896-171.52 0-310.5024 138.9696-310.5024 310.4896 0 171.52 138.9824 310.5664 310.5024 310.5664M658.9952 579.904l38.8096-33.408-202.9312-235.776-98.304 113.152-107.904-132.8128-39.7312 32.2816 146.3296 180.096 99.4176-114.432z"  horiz-adv-x="1024" />

      <glyph glyph-name="minjiefenxi" unicode="&#58972;" d="M402.04653 23.552707c-136.068278 47.388396-235.285955 176.354605-237.94969 328.959871-3.412495 195.501707 153.286881 357.782025 348.788588 361.19452 150.79385 2.632116 281.278589-89.706521 335.177073-221.288877L944.474481 494.101098C886.432471 677.265355 713.224538 808.577126 511.304117 805.052592c-246.234492-4.298039-442.837684-207.886604-438.539645-454.121096 3.556382-203.744964 143.172407-373.142949 330.957145-423.344479l-1.674858 95.952564zM945.178256 328.598974a15.491282 15.491282 0 0 1-0.708923 3.373949 17.893744 17.893744 0 0 1-4.437333 7.443692 17.618051 17.618051 0 0 1-19.193436 3.899077L483.958154 175.300923a17.749333 17.749333 0 0 1 0.118154-33.13559L671.638974 71.02359l71.194257-187.575795c2.586256-6.866051 9.137231-11.421538 16.475897-11.460923h0.065641c7.325538 0 13.876513 4.555487 16.541539 11.342769L943.917949 320.223179a17.749333 17.749333 0 0 1 1.247179 8.388924zM853.333333 278.974359L678.833231 108.307692 538.25641 160.452923 853.333333 278.974359z m-92.265025-341.333333L708.923077 78.217846 879.589744 252.717949l-118.521436-315.076923z"  horiz-adv-x="1024" />

      <glyph glyph-name="yanfagongju" unicode="&#58968;" d="M899.657143 163.547429V604.379429l-219.428572 125.44V847.725714l321.828572-183.881143v-559.689142L680.228571-79.725714v117.906285l219.428572 125.366858zM124.342857 604.379429v-440.832l219.428572-125.366858v-117.906285L21.942857 104.155429V663.844571L343.771429 847.725714v-117.906285l-219.428572-125.44zM530.285714 186.514286H412.013714L566.857143 362.057143h118.345143L530.285714 186.514286zM530.285714 537.6H412.013714L566.857143 362.057143h118.345143L530.285714 537.6z"  horiz-adv-x="1024" />

      <glyph glyph-name="shujuanquan" unicode="&#58900;" d="M964.47 373.32c-24.76 0-65 3-115.83 17.29C775.94 411.1 736 448 736 448s-39.94-36.9-112.64-57.38c-50.8-14.31-91.07-17.29-115.83-17.29-17.75 0-27.53 1.53-27.53 1.53s0.68-66.49 20.48-183.89c21.14-125.39 87-197.61 138.24-225.25C693.33-63.77 734.69-64 736-64c1.27 0 42.64 0.23 97.25 29.72 51.2 27.64 117.1 99.86 138.24 225.25C991.32 308.37 992 374.86 992 374.86s-9.79-1.54-27.53-1.54zM940 196.29c-0.24-1.44-0.52-2.86-0.77-4.29H736v-224c-2.1 0.06-36.7 1.37-82.08 25.87-14.22 7.68-42.13 26.45-69.21 65.92-25.38 37-42.81 81.46-51.91 132.21H736V407.77c20.79-14.24 56.05-34.46 104-47.95 50.23-14.15 91.14-17.95 118.24-18.44C956 311.24 951 261.77 940 196.29zM512 405.36c23 0.36 58.42 3.59 102.68 16.06 43.85 12.35 74.45 31.36 89.32 42.06V512H512zM736 672v-180.43l0.22 0.21 21.44-20.22c1.68-1.49 37.34-32.59 99.66-50.14a437.76 437.76 0 0 1 70.69-14V672zM531.94 23.58A354.17 354.17 0 0 0 512 56.36V-64h114.44l-2.92 1.56c-33.34 18-65.86 48.55-91.58 86.02z m316.54-86l-2.92-1.58H928v71.15c-23.47-29.95-51.2-54.3-79.52-69.59zM64-64h192V672H64z m224 0h192V136.21a465.83 465.83 0 0 0-11.07 49.43C448.94 304.16 448 371.71 448 374.53l-0.39 38.21L480 407.3V832H288zM964.47 373.32c-24.76 0-65 3-115.83 17.29C775.94 411.1 736 448 736 448s-39.94-36.9-112.64-57.38c-50.8-14.31-91.07-17.29-115.83-17.29-17.75 0-27.53 1.53-27.53 1.53s0.68-66.49 20.48-183.89c21.14-125.39 87-197.61 138.24-225.25C693.33-63.77 734.69-64 736-64c1.27 0 42.64 0.23 97.25 29.72 51.2 27.64 117.1 99.86 138.24 225.25C991.32 308.37 992 374.86 992 374.86s-9.79-1.54-27.53-1.54zM940 196.29c-0.24-1.44-0.52-2.86-0.77-4.29H736v-224c-2.1 0.06-36.7 1.37-82.08 25.87-14.22 7.68-42.13 26.45-69.21 65.92-25.38 37-42.81 81.46-51.91 132.21H736V407.77c20.79-14.24 56.05-34.46 104-47.95 50.23-14.15 91.14-17.95 118.24-18.44C956 311.24 951 261.77 940 196.29z"  horiz-adv-x="1024" />

      <glyph glyph-name="CE" unicode="&#58881;" d="M972.808704 793.6h-358.4l-256-0.0512c-114.2784 0-216.0128-59.4432-281.4976-152.3712A427.4176 427.4176 0 0 1 0.008704 393.8304a428.1344 428.1344 0 0 1 77.0048-247.296C142.498304 53.6576 244.232704-5.7856 358.408704-5.7856h256c198.144 0 358.4 178.7392 358.4 399.6672V793.6z m-102.4-102.4v-297.3184c0-81.5616-27.9552-157.696-78.7456-214.3232-47.9744-53.504-110.8992-82.944-177.2544-82.944H358.408704c-76.8 0-148.9408 39.68-197.632 108.9024a300.7488 300.7488 0 0 0-19.712 31.8976A327.424 327.424 0 0 0 102.408704 393.8304a327.68 327.68 0 0 0 58.2656 188.3648C209.467904 651.4688 281.506304 691.1488 358.408704 691.1488L614.408704 691.2h256zM754.696704 358.656h-132.7616l-13.7216-71.1168h149.1456l-15.4112-81.408H497.160704l71.424 377.6h236.9536l-15.872-81.2544h-140.5952l-12.288-63.4368h133.4784zM313.147904 287.488h200.3456l-15.4112-81.3568H253.295104L180.437504 424.4992l144.2816 159.232H510.472704l-15.872-81.3056H354.005504L272.853504 413.3888z"  horiz-adv-x="1024" />

      <glyph glyph-name="kanbantu-shuaxin" unicode="&#58967;" d="M860.956444 663.893333a446.634667 446.634667 0 0 1-340.764444 174.705778c-4.551111 0.568889-9.614222 0.568889-14.165333 0.568889C258.161778 839.111111 56.888889 637.326222 56.888889 389.916444c0-247.466667 201.272889-448.739556 449.137778-448.739555a447.317333 447.317333 0 0 1 423.082666 299.576889h-98.360889a402.204444 402.204444 0 0 0-24.234666-43.804445 355.043556 355.043556 0 0 0-300.487111-164.295111c-197.12 0-357.660444 160.085333-357.660445 357.262222a358.229333 358.229333 0 0 0 357.660445 357.660445c4.551111 0 9.614222 0 14.165333-0.512a355.271111 355.271111 0 0 0 275.342222-148.195556l-47.559111-46.592-73.159111-73.216h219.534222c18.318222 0 34.759111 6.883556 47.559111 17.806223 15.587556 13.312 25.656889 33.393778 25.656889 55.409777V770.503111L860.956444 663.893333z"  horiz-adv-x="1024" />

      <glyph glyph-name="daohang-sousuo" unicode="&#58942;" d="M661.048889 162.133333l183.011555-182.954666 73.216 73.216-183.011555 183.011555zM458.865778 839.111111C237.226667 839.111111 56.888889 658.773333 56.888889 437.134222 56.888889 215.608889 237.226667 35.271111 458.865778 35.271111c221.639111 0 401.92 180.337778 401.92 401.92C860.728889 658.773333 680.391111 839.111111 458.865778 839.111111m0-91.420444a310.499556 310.499556 0 1 0 0-620.999111 310.499556 310.499556 0 0 0 0 620.999111"  horiz-adv-x="1024" />

      <glyph glyph-name="daohang-bangzhu" unicode="&#58943;" d="M513.991111 839.111111C261.916444 839.111111 56.888889 634.083556 56.888889 382.008889 56.888889 129.991111 261.916444-75.093333 513.991111-75.093333c252.017778 0 457.102222 205.084444 457.102222 457.102222S766.008889 839.111111 513.991111 839.111111m0-91.420444a365.681778 365.681778 0 1 0 0-731.363556 365.681778 365.681778 0 0 0 0 731.363556M487.537778 205.141333H564.906667c17.066667 0 30.890667-14.563556 30.890666-32.597333v-30.890667c0-18.033778-13.880889-32.597333-30.890666-32.597333h-46.648889c-17.009778 0-30.833778 14.563556-30.833778 32.597333v63.488zM327.736889 525.596444l0.170667-68.949333c0-25.201778 20.48-45.624889 45.681777-45.624889h20.195556l-0.227556 81.92h207.303111V411.875556l-86.584888-51.313778a45.852444 45.852444 0 0 1-22.357334-39.310222v-53.532445h96.824889v56.206222c0 8.192 4.380444 15.701333 11.434667 19.797334l75.776 43.918222a45.624889 45.624889 0 0 1 22.812444 39.537778V525.653333a45.738667 45.738667 0 0 1-45.681778 45.738667H373.475556a45.738667 45.738667 0 0 1-45.738667-45.795556"  horiz-adv-x="1024" />

      <glyph glyph-name="kanbantu-fenxiang" unicode="&#58944;" d="M807.253333 256a159.288889 159.288889 0 0 1-136.533333-78.506667l-250.311111 87.04a56.888889 56.888889 0 0 1 0 9.671111 180.906667 180.906667 0 0 1-37.546667 124.017778l151.893334 176.355556A137.671111 137.671111 0 1 1 465.92 634.311111l-153.6-179.768889a188.302222 188.302222 0 0 1-59.733333 15.36h-13.084445A182.727111 182.727111 0 1 1 227.555556 104.675556h13.084444a183.751111 183.751111 0 0 1 146.773333 74.524444l260.551111-90.453333a159.857778 159.857778 0 1 1 159.288889 167.253333z m-222.435555 491.52a46.08 46.08 0 1 0-46.08-45.511111 45.511111 45.511111 0 0 0 46.08 45.511111z m-344.746667-551.822222H233.244444a91.591111 91.591111 0 0 0 6.257778 183.182222h6.826667a89.315556 89.315556 0 0 0 62.577778-31.288889 91.591111 91.591111 0 0 0-68.835556-151.324444v-0.568889z m568.888889-170.666667a68.835556 68.835556 0 1 0 68.835556 68.266667 68.266667 68.266667 0 0 0-70.542223-65.991111l1.706667-2.275556z"  horiz-adv-x="1024" />

      <glyph glyph-name="quanju-riqi" unicode="&#58945;" d="M830.008889 793.6h-96.711111V839.111111h-91.591111v-45.511111H387.982222V839.111111h-91.022222v-45.511111H205.368889C154.737778 793.6 113.777778 752.64 113.777778 702.008889v-625.777778A91.591111 91.591111 0 0 1 205.368889-14.222222h625.777778a91.591111 91.591111 0 0 1 90.453333 91.022222v625.777778a91.591111 91.591111 0 0 1-91.591111 91.022222z m-625.777778-91.591111h92.728889v-46.08h91.022222v46.08h253.724445v-46.08h91.591111v46.08h96.711111v-137.102222h-625.777778V702.008889z m0-625.777778v398.222222h625.777778v-398.222222h-625.777778z"  horiz-adv-x="1024" />

      <glyph glyph-name="daohang-shezhi" unicode="&#58946;" d="M420.977778 747.52h122.88l36.408889-71.111111 26.737777-51.768889h56.888889l90.453334 3.982222 31.288889-52.906666 31.288888-52.906667-47.217777-77.368889-30.151111-46.648889 32.426666-48.924444 43.804445-65.422223-56.888889-108.088888H625.777778l-26.168889-48.924445-38.115556-67.697778H438.613333l-36.408889 69.973334-27.306666 51.768889h-56.888889L227.555556 175.217778l-31.288889 52.906666-31.857778 52.906667 47.786667 77.368889 30.151111 50.062222-32.426667 48.355556-44.942222 65.991111 29.582222 54.044444 29.013333 56.888889h133.688889l26.168889 48.355556 37.546667 65.422222M366.364444 839.111111l-36.977777-68.835555a92.728889 92.728889 0 0 0-81.351111-48.355556L170.666667 725.333333 56.888889 517.688889l42.097778-62.577778a91.591111 91.591111 0 0 0 0-98.417778L56.888889 282.168889l118.897778-200.817778 87.04 3.982222a91.022222 91.022222 0 0 0 85.333333-48.924444l34.702222-67.128889h233.244445l36.977777 68.835556a91.022222 91.022222 0 0 0 81.351112 47.786666h77.937777l113.777778 204.8-44.373333 61.44a90.453333 90.453333 0 0 0 0 98.417778l45.511111 74.524444L806.684444 725.333333l-87.04-3.982222a91.591111 91.591111 0 0 0-85.333333 48.924445L599.608889 839.111111h-233.244445zM490.951111 472.177778a68.835556 68.835556 0 1 0 1.137778-137.671111 68.835556 68.835556 0 0 0-1.137778 137.671111m0 91.022222a159.857778 159.857778 0 1 1 0-319.715556 159.857778 159.857778 0 0 1 0 319.715556z"  horiz-adv-x="1024" />

      <glyph glyph-name="daohang-zichangouwuche" unicode="&#58947;" d="M227.157333 74.353778h103.082667c22.641778 0 41.016889-20.48 41.016889-45.681778v-43.406222c0-25.258667-18.375111-45.681778-40.96-45.681778H268.117333c-22.641778 0-40.96 20.423111-40.96 45.681778v89.088zM697.344 74.353778h103.082667c22.641778 0 40.96-20.48 40.96-45.681778v-43.406222c0-25.258667-18.318222-45.681778-40.96-45.681778h-62.065778c-22.641778 0-41.016889 20.423111-41.016889 45.681778v89.088zM113.777778 827.960889l47.217778-385.706667 90.567111 11.207111L204.344889 839.111111zM830.976 613.376H225.735111c-41.813333 0-75.662222-40.618667-75.662222-90.680889l37.831111-272.156444c0-50.119111 33.905778-90.737778 75.662222-90.737778h529.578667c41.813333 0 75.662222 40.618667 75.662222 90.737778l37.831111 272.156444c0 50.062222-33.905778 90.680889-75.662222 90.680889m-16.725333-91.420444l-36.010667-258.844445-0.853333-6.257778v-5.688889H279.324444v5.688889l-0.853333 6.257778-36.010667 258.844445h571.790223"  horiz-adv-x="1024" />

      <glyph glyph-name="quanju-xiazai" unicode="&#58948;" d="M553.528889 250.311111l258.844444 258.844445-64.853333 64.853333L535.324444 361.244444V839.111111H443.733333v-479.004444L231.537778 572.871111 166.684444 508.017778l257.137778-257.706667a92.728889 92.728889 0 0 1 129.706667 0zM834.56 319.146667v-227.555556H148.48v182.044445H56.888889v-180.906667c0-50.631111 40.96-91.591111 91.591111-91.591111h686.08a91.591111 91.591111 0 0 1 91.591111 91.022222v227.555556l-91.591111-0.568889z"  horiz-adv-x="1024" />

      <glyph glyph-name="kanbantu-quanping" unicode="&#58949;" d="M355.84 262.030222L205.255111 111.445333V233.358222H113.777778v-181.134222C113.777778 1.934222 154.908444-39.253333 205.255111-39.253333h182.897778V52.224H275.399111l145.123556 145.066667L355.84 262.087111zM388.209778 690.744889V782.165333H205.255111C154.965333 782.165333 113.777778 741.034667 113.777778 690.744889v-181.134222h91.477333V629.418667l150.641778-150.584889 64.682667 64.682666-147.228445 147.228445h114.858667zM845.596444 782.222222h-182.954666v-91.420444h124.472889l-147.228445-147.228445 64.682667-64.739555 141.027555 141.027555v-110.250666h91.477334V690.801778c0 50.289778-41.130667 91.420444-91.477334 91.420444M845.596444 121.002667L704.512 262.030222 639.943111 197.347556l145.066667-145.123556H662.698667V-39.253333h182.954666c50.346667 0 91.477333 41.187556 91.477334 91.477333V233.358222H845.596444v-112.355555z"  horiz-adv-x="1024" />

      <glyph glyph-name="shujuzichan-yewushujuzichan" unicode="&#58950;" d="M150.186667 690.631111h672.426666v-328.248889h91.591111V690.631111c0 50.631111-40.96 91.591111-91.591111 91.591111H150.186667A92.728889 92.728889 0 0 1 56.888889 690.631111v-574.577778a92.16 92.16 0 0 1 93.297778-91.591111h455.111111v91.591111h-455.111111V690.631111zM388.551111 468.195556l-64.284444-0.568889-118.897778-118.897778 64.853333-64.853333 87.04 87.608888 91.591111-89.884444h63.715556l209.92 205.368889-64.284445 65.422222-177.493333-174.648889zM861.866667 156.444444l-62.008889-35.271111-27.875556-56.888889 61.44 34.133334 28.444445 56.888889zM821.475556 247.466667A140.515556 140.515556 0 1 1 967.111111 107.52a141.653333 141.653333 0 0 1-145.635555 139.946667z m62.008888-198.542223a89.315556 89.315556 0 0 0-62.008888-25.031111A83.626667 83.626667 0 1 0 910.222222 107.52a82.488889 82.488889 0 0 0-26.737778-58.595556z"  horiz-adv-x="1024" />

      <glyph glyph-name="shujukanban-tianjiakanban" unicode="&#58951;" d="M967.111111 184.888889h-114.346667v114.346667h-45.511111v-114.346667h-114.346666v-45.511111h114.346666v-114.346667h45.511111V139.377778H967.111111v45.511111zM193.991111 462.506667h45.511111v91.022222h-45.511111v-45.511111zM148.48 690.631111h657.635556v-300.373333h91.591111V690.631111c0 50.631111-40.96 91.591111-91.591111 91.591111H148.48C97.848889 782.222222 56.888889 741.262222 56.888889 690.631111v-574.577778a91.022222 91.022222 0 0 1 91.591111-91.591111h455.111111v91.591111h-455.111111V690.631111z"  horiz-adv-x="1024" />

      <glyph glyph-name="qingkong" unicode="&#58952;" d="M512.000089 895.999349a511.999675 511.999675 0 1 1 511.999674-511.999674A511.349103 511.349103 0 0 1 512.000089 895.999349z m246.566552-691.557375l-37.082568-37.082568-37.082569-36.431997-172.401415 171.750843-171.750844-171.750843-37.082569 36.431997-37.082568 37.082568L438.485523 375.542247 266.084108 549.244805l37.082568 36.431997 37.082569 37.082569 171.750844-171.750844 172.401415 171.750844 37.082569-37.082569 37.082568-36.431997L586.165226 375.542247z"  horiz-adv-x="1024" />

      <glyph glyph-name="shujuzichan-jishushujuzichan" unicode="&#58953;" d="M345.315556 569.457778L188.302222 428.373333v-39.253333l157.013334-141.653333V344.177778L272.497778 408.462222l72.817778 64.853334zM467.626667 225.28l83.057777 339.626667H473.315556l-87.04-339.626667zM596.195556 247.466667l157.582222 141.653333v39.253333l-157.582222 141.084445v-96.142222l73.386666-64.853334-73.386666-64.284444zM150.186667 690.631111h672.426666v-328.248889h91.591111V690.631111c0 50.631111-40.96 91.591111-91.591111 91.591111H150.186667A92.728889 92.728889 0 0 1 56.888889 690.631111v-574.577778a92.16 92.16 0 0 1 93.297778-91.591111h455.111111v91.591111h-455.111111V690.631111zM865.848889 156.444444l-62.008889-35.271111-28.444444-56.888889s0-3.982222 3.413333-2.844444l61.44 34.133333 29.013333 56.888889s-1.137778 3.982222-3.413333 3.982222zM826.026667 247.466667A140.515556 140.515556 0 1 1 967.111111 107.52a141.653333 141.653333 0 0 1-141.084444 139.946667z m61.44-198.542223a88.177778 88.177778 0 0 0-61.44-25.031111 83.626667 83.626667 0 1 0 0 166.684445A84.764444 84.764444 0 0 0 910.222222 107.52a82.488889 82.488889 0 0 0-22.755555-58.595556z"  horiz-adv-x="1024" />

      <glyph glyph-name="shujuzichan-zichanfaxian" unicode="&#58954;" d="M929.564444-30.151111l-50.062222 49.493333a139.377778 139.377778 0 1 1-31.857778-32.426666l49.493334-49.493334 32.426666 32.426667z m-162.702222 35.84a91.591111 91.591111 0 1 0-1.080889 183.182222 91.591111 91.591111 0 0 0 1.080889-183.182222zM152.462222 258.275556v47.217777H853.333333a89.315556 89.315556 0 0 1 13.084445 47.217778V448.853333a93.866667 93.866667 0 0 1-32.995556 71.111111 95.004444 95.004444 0 0 1 32.995556 71.68V686.648889c0 52.337778-42.097778 94.947556-94.435556 95.573333H152.462222A95.573333 95.573333 0 0 1 56.888889 686.648889v-95.004445c0.113778-27.534222 12.117333-53.703111 32.995555-71.68A93.866667 93.866667 0 0 1 56.888889 448.853333v-381.724444a95.573333 95.573333 0 0 1 95.573333-95.004445h374.897778v95.004445H152.462222v191.146667z m619.52 95.004444H152.462222V448.853333h619.52v-95.573333zM152.462222 686.648889h619.52v-95.004445H152.462222V686.648889z m0-142.791111h619.52V497.777778H152.462222v46.08z"  horiz-adv-x="1024" />

      <glyph glyph-name="tishi-beizhu1" unicode="&#58955;" d="M512 839.111111a455.111111 455.111111 0 1 1 0-910.222222A455.111111 455.111111 0 0 1 512 839.111111z m56.888889-703.146667H455.111111V417.564444h113.777778v-281.6z m0 358.4H455.111111V585.955556h113.777778v-91.591112z"  horiz-adv-x="1024" />

      <glyph glyph-name="shujukanban-tianjiamulu" unicode="&#58956;" d="M649.102222 47.786667l274.204445-0.568889v45.112889l-274.090667 0.568889zM649.102222 47.786667l274.204445-0.568889v45.112889l-274.090667 0.568889zM763.448889-67.015111l45.112889-0.113778 0.568889 274.204445-45.226667 0.113777zM763.448889-67.015111l45.112889-0.113778 0.568889 274.204445-45.226667 0.113777zM251.505778 610.702222V519.281778h45.681778V610.702222zM341.902222 610.645333V519.224889h328.988445V610.645333zM251.505778 444.302222v-91.363555h45.681778V444.302222zM341.902222 444.302222V352.881778h328.988445V444.302222zM251.505778 277.959111V186.595556h45.681778V277.959111zM341.902222 277.959111V186.595556h328.988445V277.959111zM764.188444 839.111111H205.198222C154.908444 839.111111 113.777778 798.435556 113.777778 747.690667v-698.424889c0-50.744889 41.130667-91.420444 91.420444-91.420445h354.190222v91.420445H205.198222V747.690667h558.990222v-451.128889h91.420445v451.128889c0 50.744889-41.130667 91.420444-91.420445 91.420444"  horiz-adv-x="1024" />

      <glyph glyph-name="tubiao-zhuzhuangtu" unicode="&#58957;" d="M775.964444 66.56V645.12H682.666667v-578.56h-89.884445v398.222222H500.053333v-398.222222H409.6v213.333333H317.44v-212.764444h-113.777778V777.102222a14.222222 14.222222 0 0 0 0 5.12H113.777778v-715.662222a91.022222 91.022222 0 0 1 91.591111-91.022222h715.093333v91.022222h-144.497778z"  horiz-adv-x="1024" />

      <glyph glyph-name="daohang-xiaoxitishi" unicode="&#58958;" d="M693.077333 610.474667h-0.568889l-348.330666-2.446223A91.363556 91.363556 0 0 1 253.383111 515.982222l3.072-439.694222 531.114667 3.697778-3.072 439.751111a91.420444 91.420444 0 0 1-91.420445 90.737778m-0.170666 0l0.170666-78.848v-12.515556l2.389334-348.330667-348.16-2.389333-2.503111 348.216889 348.216888 2.446222-0.113777 91.420445M477.240889 839.111111h61.269333c13.425778 0 24.348444-12.117333 24.348445-27.136V737.848889c0-14.961778-10.922667-27.136-24.348445-27.136h-36.977778c-13.368889 0-24.291556 12.174222-24.291555 27.136V839.111111zM179.256889 722.375111l43.292444 43.292445c9.557333 9.557333 25.827556 8.647111 36.465778-1.934223l52.337778-52.337777c10.638222-10.638222 11.491556-26.965333 1.991111-36.408889l-26.055111-26.168889c-9.557333-9.500444-25.827556-8.533333-36.408889 1.991111L179.2 722.375111zM56.888889 480.938667l43.292444 43.292444c9.557333 9.557333 25.827556 8.647111 36.465778-1.934222l52.337778-52.337778c10.638222-10.638222 11.491556-26.965333 1.991111-36.408889l-26.112-26.168889c-9.500444-9.500444-25.827556-8.533333-36.408889 1.991111L56.888889 480.938667zM785.237333 782.904889l43.292445-43.292445c9.557333-9.500444 8.647111-25.827556-1.934222-36.408888l-52.337778-52.451556c-10.638222-10.581333-26.965333-11.377778-36.408889-1.934222l-26.168889 26.055111c-9.500444 9.557333-8.533333 25.827556 1.991111 36.522667l71.566222 71.566222zM927.516444 541.525333l43.292445-43.349333c9.500444-9.500444 8.647111-25.770667-1.934222-36.408889l-52.337778-52.394667c-10.638222-10.581333-26.965333-11.434667-36.408889-1.934222l-26.168889 26.055111c-9.500444 9.557333-8.533333 25.827556 1.991111 36.408889L927.516444 541.582222zM99.953778-64.113778h841.102222V27.306667H99.953778z"  horiz-adv-x="1024" />

      <glyph glyph-name="tubiao-bingtu" unicode="&#58959;" d="M958.577778 384a466.488889 466.488889 0 0 1-466.488889 455.111111h-5.12a42.097778 42.097778 0 0 1-36.977778-42.097778V372.622222c0-23.267556 18.830222-42.097778 42.097778-42.097778h423.822222a42.097778 42.097778 0 0 1 42.666667 42.097778V384zM534.755556 415.288889V752.071111a382.293333 382.293333 0 0 0 336.782222-336.782222H534.755556zM503.466667 25.6A354.986667 354.986667 0 0 0 375.466667 711.68V807.822222a446.008889 446.008889 0 1 1 556.942222-550.115555H836.266667a354.986667 354.986667 0 0 0-332.8-232.106667z"  horiz-adv-x="1024" />

      <glyph glyph-name="tishi-beizhu2" unicode="&#58960;" d="M512 839.111111a455.111111 455.111111 0 1 1 0-910.222222A455.111111 455.111111 0 0 1 512 839.111111z m44.942222-727.608889H468.764444v89.884445h90.453334l-2.275556-89.884445z m102.968889 304.355556L559.217778 349.866667v-56.888889H468.764444V374.897778L568.888889 440.888889V497.777778H459.662222v-64.853334h-91.022222V577.422222h291.271111v-161.564444z"  horiz-adv-x="1024" />

      <glyph glyph-name="shezhi-quanxianshezhi" unicode="&#58961;" d="M867.896889 260.551111h-215.04c-27.477333 0-49.664-20.138667-49.664-45.112889v-181.930666c0-27.420444 22.186667-49.664 49.664-49.664h215.04a49.664 49.664 0 0 1 49.664 49.664v181.930666c0 24.917333-22.186667 45.056-49.664 45.056m3.982222-45.681778v-181.304888a3.982222 3.982222 0 0 0-3.982222-3.982223h-215.04a3.982222 3.982222 0 0 0-3.982222 3.982223l-0.568889 179.768888c0.341333 0.455111 1.763556 1.479111 4.551111 1.479112h215.04c1.536 0 2.673778-0.284444 3.413333-0.284445 0.227556 0 0.455111 0.113778 0.568889 0.398222M760.604444 370.801778h-0.455111c-48.526222 0-87.950222-40.675556-87.950222-90.851556v-63.146666h176.355556v63.146666c0 50.232889-39.367111 90.908444-87.950223 90.908445m0-45.681778c23.324444 0 42.211556-20.252444 42.211556-45.169778v-17.408H717.937778v17.408c0 24.917333 18.944 45.112889 42.211555 45.112889h0.455111M508.984889 782.222222a205.937778 205.937778 0 0 1-205.653333-205.710222 205.937778 205.937778 0 0 1 205.653333-205.653333 205.937778 205.937778 0 0 1 205.710222 205.653333A205.937778 205.937778 0 0 1 508.984889 782.222222m0-91.420444a114.232889 114.232889 0 1 0 0.056889-228.522667 114.232889 114.232889 0 0 0 0 228.522667M509.155556 370.801778V462.222222h-0.853334C295.253333 462.222222 118.328889 289.450667 113.777778 76.913778v-0.455111c-1.024-51.2 40.163556-93.184 91.363555-93.184H509.155556v91.363555H205.255111A302.933333 302.933333 0 0 0 509.155556 370.801778M735.573333 67.299556h49.664v95.232h-49.664z"  horiz-adv-x="1024" />

      <glyph glyph-name="hangweifenxi-mokuaifenxi" unicode="&#58962;" d="M377.742222 468.195556l-64.284444-0.568889-118.897778-118.897778 64.853333-64.853333 87.04 87.608888L438.044444 281.6h64.284445l209.351111 205.368889-63.715556 65.422222-178.062222-174.648889zM922.737778 270.222222h-197.973334a45.511111 45.511111 0 0 1-45.511111-45.511111v-197.973333a45.511111 45.511111 0 0 1 45.511111-45.511111h197.973334a45.511111 45.511111 0 0 1 45.511111 45.511111v200.817778a45.511111 45.511111 0 0 1-45.511111 42.666666z m0-243.484444h-197.973334v200.817778h197.973334v-200.817778zM148.48 690.631111h657.635556v-328.248889h91.591111V690.631111c0 50.631111-40.96 91.591111-91.591111 91.591111H148.48C97.848889 782.222222 56.888889 741.262222 56.888889 690.631111v-574.577778a91.022222 91.022222 0 0 1 91.591111-91.591111h441.457778v91.591111H148.48V690.631111z"  horiz-adv-x="1024" />

      <glyph glyph-name="tubiao-loudoutu" unicode="&#58963;" d="M693.475556 222.663111l-386.616889-1.137778 0.227555-91.477333 386.616889 1.251556zM774.144 451.584l-552.163556-1.649778 0.341334-91.420444 552.163555 1.706666zM819.484444 725.333333H157.013333C87.267556 725.333333 38.912 661.731556 63.317333 602.055111c0 0 179.541333-431.559111 187.733334-439.921778v-122.140444c0-50.517333 44.885333-91.420444 100.124444-91.420445h271.36c55.296 0 100.124444 40.903111 100.124445 91.420445v119.751111c9.500444 8.874667 190.577778 442.311111 190.577777 442.311111 24.405333 59.676444-23.950222 123.278222-93.752889 123.278222m0-91.363555a15.36 15.36 0 0 0 7.395556-1.592889c-66.332444-158.72-163.669333-388.437333-181.475556-423.822222a91.420444 91.420444 0 0 1-14.108444-48.810667v-117.304889a14.904889 14.904889 0 0 0-8.704-2.446222h-271.36a14.620444 14.620444 0 0 0-8.704 2.446222v119.694222c0 16.782222-4.608 32.995556-13.198222 47.217778-15.587556 31.857778-103.025778 238.819556-179.655111 423.025778a15.075556 15.075556 0 0 0 7.338666 1.592889h662.471111"  horiz-adv-x="1024" />

      <glyph glyph-name="tubiao-zhexiantu" unicode="&#58964;" d="M523.946667 225.28L407.893333 341.333333l-110.364444-112.64-65.422222 63.715556 142.791111 145.635555h64.853333l116.622222-115.484444 219.022223 217.884444 64.284444-64.853333-251.448889-250.311111zM205.368889 66.56V777.102222a14.222222 14.222222 0 0 0 0 5.12H113.777778v-715.662222a91.022222 91.022222 0 0 1 91.591111-91.022222h715.093333v91.022222H205.368889z"  horiz-adv-x="1024" />

      <glyph glyph-name="tubiao-biaoge" unicode="&#58965;" d="M829.44 782.222222h-625.777778A91.591111 91.591111 0 0 1 113.777778 690.631111v-618.951111c0-50.631111 40.96-91.591111 91.591111-91.591111h625.777778c50.631111 0 91.591111 40.96 91.591111 91.591111V690.631111A91.591111 91.591111 0 0 1 829.44 782.222222z m-239.502222-91.591111v-145.635555H445.44V690.631111h144.497778z m-143.928889-382.862222V448.853333h143.928889v-141.084444H446.008889zM589.937778 213.333333v-139.946666H446.577778V213.333333h143.36zM205.368889 690.631111h147.911111v-145.635555h-147.911111V690.631111z m0-241.777778h149.048889v-141.084444H205.368889V448.853333z m0-237.226666h149.617778v-139.946667H205.368889v139.946667z m625.777778-139.946667H682.666667V213.333333h147.911111l0.568889-141.653333z m0 236.088889H682.666667V448.853333h147.911111l0.568889-141.084444zM682.666667 544.995556V690.631111h147.911111v-145.635555H682.666667z"  horiz-adv-x="1024" />

      <glyph glyph-name="hangweifenxi-baobiaoliebiao" unicode="&#58966;" d="M251.505778 565.361778l-0.056889-45.738667 45.681778-0.056889 0.113777 45.681778 0.056889 45.738667h-45.738666zM341.959111 610.872889v-45.738667l-0.113778-45.681778 192.625778-0.284444 0.113778 45.681778 0.113778 45.738666zM251.278222 386.844444l-0.113778-45.681777 45.681778-0.113778 0.113778 45.738667 0.113778 45.738666-45.738667 0.056889zM341.731556 432.412444l-0.056889-45.681777-0.056889-45.738667 346.396444-0.568889v45.738667l0.113778 45.681778zM250.936889 208.213333v-45.738666h45.681778l0.056889 45.624889 0.056888 45.738666-45.681777 0.056889zM341.447111 253.724444v-45.681777l-0.170667-45.681778 346.453334-0.568889 0.056889 45.738667 0.056889 45.681777zM546.133333 839.111111H205.255111C154.453333 839.111111 113.777778 798.435556 113.777778 747.690667v-719.075556c0-50.176 40.675556-91.363556 91.420444-91.363555h575.488c50.289778 0 91.420444 41.187556 91.420445 91.420444V513.137778L546.133333 839.111111z m-37.831111-91.420444l272.384-272.384v-446.634667H205.198222V747.690667h303.104z"  horiz-adv-x="1024" />

    </font>
</defs>
</svg>
